HD-AREA wünscht Euch eine besinnliche Weihnachtszeit ;)

DNS SERVER AENDERNum der staatlichen Zensur zu umgehen. Sollten wir von eurem Provider geseprrt werden, nutzt den TOR BROWSER oder ändert euren DNS SERVER.

Filmwünsche können bei uns im Forum abgegeben werden

Wir Speichern Nicht




 
 
 
Top Releases
Brotherhood.of.Blades.2.2017...
Brotherhood.of.Blades.2.2017...
Brotherhood.of.Blades.2.2017...
Brotherhood.of.Blades.2.2017...
Kill.Bill.The.Whole.Bloody.A...
Kill.Bill.The.Whole.Bloody.A...
Meine.schoene.innere.Sonne.2...
Meine.schoene.innere.Sonne.2...
Meine.schoene.innere.Sonne.2...
Mountain.2017.DOKU.DUAL.COMP...

Cinedubs
Aquaman.TS.LD.German.DL.720p...
Eho.Echo.German.720p.WEBRip....
Eho.Echo.German.1080p.WEBRip...
Bad.Times.at.the.El.Royale.2...
Bad.Spies.2018.German.DL.AC3...
Aquaman.2018.GERMAN.AC3.MD.7...
Bad.Spies.German.DL.AC3.Dubb...
Bad.Spies.German.DL.AC3.Dubb...
Bad.Times.at.the.El.Royale.G...
Bad.Times.at.the.El.Royale.G...

Neuerscheinungen 2017-18
Der.Koenig.und.ich.1956.GERM...
Ben.1972.DUAL.COMPLETE.BLURA...
In.Love.and.War.1996.German....
Der.Teufelsschrei.Evilspeak....
Der.Teufelsschrei.THEATRICAL...
When.Angels.Sleep.2018.Germa...
Hudsucker.Der.grosse.Sprung....
Assault.Anschlag.bei.Nacht.A...
Subconscious.Cruelty.2000.Ge...
How.It.Ends.2018.German.AC3D...

XXX
RodneyMoore.18.09.21.Devyn.L...
Spizoo.18.12.17.Lily.Adams.X...
TeensDoPorn.18.12.17.Honey.M...
SugarDaddyPORN.18.12.17.Lace...
Thai.Cock.Suckers.XXX.1080p....
TeenSexMania.18.12.18.Mishel...
The.Many.Shades.of.Juliette....
SpyFam.18.12.17.Elsa.Jean.XX...
RodneyMoore.18.12.12.Claire....
RodneyMoore.18.12.13.Aleah.P...
RodneyMoore.18.09.13.Alexa.G...
StrandedTeens.18.12.18.Vienn...
ThaiGirlsWild.18.12.03.Panda...
RodneyMoore.18.09.11.Lynn.Pl...
TeachMeFisting.18.12.17.Lady...
SapphicErotica.18.12.17.Lady...
Stunning18.18.12.17.Juliet.W...
RodneyMoore.18.09.27.Klaudia...
SweetSinner.18.12.18.India.S...
RKPrime.18.12.17.Bonnie.Rott...

3D
Limbradur.und.die.Magie.der....
Kaluoka.Hina.Das.Zauberriff....
Limbradur.und.die.Magie.der....
Smallfoot.3D.2018.COMPLETE.B...
Smallfoot.Ein.eisigartiges.A...
Skyscraper.3D.2018.German.DL...
Meg.3D.2018.MULTi.COMPLETE.B...
Meg.3D.2018.German.DL.1080p....
Gans.im.Glueck.3D.2018.MULTi...
The.Art.of.Flight.3D.2011.Ge...
The.End.Of.The.World.3D.2010...
The.First.Avenger.Civil.War....
Die.Unglaublichen.2.2018.3D....
Skyscraper.3D.2018.MULTi.COM...
Ant-Man.And.The.Wasp.3D.2018...

Old_Stuff
Akte.X.S05.German.DTS.DL.108...
Akte.X.S04.German.DTS.DL.108...
Akte.X.S03.German.DTS.DL.108...
Dunkirk.1958.COMPLETE.BLURAY...
Das.Wunder.von.Manhattan.199...
The.Amazing.Spiderman.2.Rise...
Rise.of.the.Predator.2014.Ge...
Detective.Dee.und.das.Geheim...
Detective.Dee.Und.Der.Fluch....
Ghost.Rider.Spirit.of.Vengea...
Species.IV.Das.Erwachen.2007...
Species.IV.Das.Erwachen.2007...
Hotel.Transsilvanien.2012.Ge...
The.Dead.2010.German.DL.1080...
The.Dead.2.India.2013.German...

Filme
Stille.Nacht.Ein.Lied.fuer.d...
Stille.Nacht.Ein.Lied.fuer.d...
Schlachthof.5.1972.German.DL...
Schlafkrankheit.German.DL.10...
Zwei.tolle.Kaefer.raeumen.au...
Zwei.tolle.Kaefer.raeumen.au...
Der.Koenig.und.ich.1956.GERM...
Die.Maedchen.von.Rochefort.1...
Frau.zu.verschenken.1978.GER...
Freddy.und.das.Lied.der.Prae...
Oliver.Twist.1948.GERMAN.FS....
Stunksitzung.Doener.for.One....
Zwei.Weihnachtshunde.2005.GE...
Dornroeschen.2009.GERMAN.720...
Der.Weihnachtshund.2004.GERM...
Erdrutsch.Wenn.die.Welt.vers...
Erdrutsch.Wenn.die.Welt.vers...
Jetzt.bringen.wir.unsere.Mae...
Ring.2.2005.German.1080p.HDT...
Ring.2.2005.German.720p.HDTV...
Spy.Kids.2.Die.Rueckkehr.der...
Spy.Kids.2.Die.Rueckkehr.der...
Wenn.der.Mond.auf.die.Erde.s...
Wenn.der.Mond.auf.die.Erde.s...

 
 
Schlafkrankheit.German.DL.1080p.BluRay.x264-EHLE

Jahr: 2011
Genre: Drama
Sprache: Deutsch DTS | Französisch DTS
Laufzeit: 1h 28mn
Bitrate: 9 699 Kbps
Format: MKV
Größe: 5.97 GiB
Release:

Beschreibung:

Ebbo leitet in Afrika ein Projekt zur Bekämpfung der Schlafkrankheit. Seine Frau Vera, die hier seit 20 Jahren mit ihm lebt, fühlt sich auf dem “Schwarzen Kontinent” aber nicht mehr wohl – vor allem seitdem Tochter Helen in Deutschland ein Internat besucht. Ebbo mag aber nicht in das Land heimkehren, das ihm fremd geworden ist, und trennt sich schweren Herzens von der geliebten Vera. Drei Jahre später reist ein französischer Mediziner nach Kamerun. Dort trifft er auf Ebbo – und lernt in ihm einen verlorenen Menschen kennen.



Complete name                            : e_schlaf_1080p.mkv
Format                                   : Matroska
Format version                           : Version 2
File size                                : 5.97 GiB
Duration                                 : 1h 28mn
Overall bit rate                         : 9 699 Kbps
Encoded date                             : UTC 2012-01-18 23:24:30
Writing application                      : mkvmerge v4.0.0 ('The Stars were mine') gebaut am Jun  6 2010 16:18:42
Writing library                          : libebml v1.0.0 + libmatroska v1.0.0

Video
ID                                       : 1
Format                                   : AVC
Format/Info                              : Advanced Video Codec
Format profile                           : High@L4.1
Format settings, CABAC                   : Yes
Format settings, ReFrames                : 4 frames
Codec ID                                 : V_MPEG4/ISO/AVC
Duration                                 : 1h 28mn
Bit rate                                 : 6 488 Kbps
Width                                    : 1 920 pixels
Height                                   : 1 040 pixels
Display aspect ratio                     : 1.85:1
Frame rate mode                          : Constant
Frame rate                               : 25.000 fps
Color space                              : YUV
Chroma subsampling                       : 4:2:0
Bit depth                                : 8 bits
Scan type                                : Progressive
Bits/(Pixel*Frame)                       : 0.130
Stream size                              : 3.99 GiB (67%)
Title                                    : EHLE
Writing library                          : x264 core 120 r2120 0c7dab9
Encoding settings                        : cabac=1 / ref=4 / deblock=1:0:0 / analyse=0x3:0x113 / me=umh / subme=7 / psy=1 / psy_rd=1.00:0.00 / mixed_ref=1 / me_range=16 / chroma_me=1 / trellis=1 / 8x8dct=1 / cqm=0 / deadzone=21,11 / fast_pskip=0 / chroma_qp_offset=-2 / threads=9 / sliced_threads=0 / nr=0 / decimate=1 / interlaced=0 / bluray_compat=0 / constrained_intra=0 / bframes=3 / b_pyramid=2 / b_adapt=1 / b_bias=0 / direct=1 / weightb=1 / open_gop=0 / weightp=2 / keyint=250 / keyint_min=25 / scenecut=40 / intra_refresh=0 / rc_lookahead=40 / rc=crf / mbtree=1 / crf=20.0 / qcomp=0.60 / qpmin=0 / qpmax=69 / qpstep=4 / ip_ratio=1.40 / aq=1:1.00
Language                                 : German
Default                                  : No
Forced                                   : No

Audio #1
ID                                       : 2
Format                                   : DTS
Format/Info                              : Digital Theater Systems
Mode                                     : 16
Format settings, Endianness              : Big
Codec ID                                 : A_DTS
Duration                                 : 1h 28mn
Bit rate mode                            : Constant
Bit rate                                 : 1 509 Kbps
Channel(s)                               : 6 channels
Channel positions                        : Front: L C R, Side: L R, LFE
Sampling rate                            : 48.0 KHz
Bit depth                                : 24 bits
Compression mode                         : Lossy
Stream size                              : 951 MiB (16%)
Title                                    : dts
Language                                 : German
Default                                  : Yes
Forced                                   : No

Audio #2
ID                                       : 3
Format                                   : DTS
Format/Info                              : Digital Theater Systems
Mode                                     : 16
Format settings, Endianness              : Big
Codec ID                                 : A_DTS
Duration                                 : 1h 28mn
Bit rate mode                            : Constant
Bit rate                                 : 1 509 Kbps
Channel(s)                               : 6 channels
Channel positions                        : Front: L C R, Side: L R, LFE
Sampling rate                            : 48.0 KHz
Bit depth                                : 24 bits
Compression mode                         : Lossy
Stream size                              : 951 MiB (16%)
Title                                    : dts
Language                                 : French
Default                                  : No
Forced                                   : No


Download:
Share Online Share OnlineShare OnlineShare Online
 

Kommentare