HD-AREA wünscht Euch eine besinnliche Weihnachtszeit ;)

DNS SERVER AENDERNum der staatlichen Zensur zu umgehen. Sollten wir von eurem Provider geseprrt werden, nutzt den TOR BROWSER oder ändert euren DNS SERVER.

Filmwünsche können bei uns im Forum abgegeben werden

Wir Speichern Nicht




 
 
 
Top Releases
Brotherhood.of.Blades.2.2017...
Brotherhood.of.Blades.2.2017...
Brotherhood.of.Blades.2.2017...
Kill.Bill.The.Whole.Bloody.A...
Kill.Bill.The.Whole.Bloody.A...
Meine.schoene.innere.Sonne.2...
Meine.schoene.innere.Sonne.2...
Meine.schoene.innere.Sonne.2...
Mountain.2017.DOKU.DUAL.COMP...
Eho.Echo.2016.German.AC3.108...

Cinedubs
Aquaman.TS.LD.German.DL.720p...
Eho.Echo.German.720p.WEBRip....
Eho.Echo.German.1080p.WEBRip...
Bad.Times.at.the.El.Royale.2...
Bad.Spies.2018.German.DL.AC3...
Aquaman.2018.GERMAN.AC3.MD.7...
Bad.Spies.German.DL.AC3.Dubb...
Bad.Spies.German.DL.AC3.Dubb...
Bad.Times.at.the.El.Royale.G...
Bad.Times.at.the.El.Royale.G...

Neuerscheinungen 2017-18
Der.Koenig.und.ich.1956.GERM...
Ben.1972.DUAL.COMPLETE.BLURA...
In.Love.and.War.1996.German....
Der.Teufelsschrei.Evilspeak....
Der.Teufelsschrei.THEATRICAL...
When.Angels.Sleep.2018.Germa...
Hudsucker.Der.grosse.Sprung....
Assault.Anschlag.bei.Nacht.A...
Subconscious.Cruelty.2000.Ge...
How.It.Ends.2018.German.AC3D...

XXX
The.Many.Shades.of.Juliette....
SpyFam.18.12.17.Elsa.Jean.XX...
RodneyMoore.18.12.12.Claire....
RodneyMoore.18.12.13.Aleah.P...
RodneyMoore.18.09.13.Alexa.G...
StrandedTeens.18.12.18.Vienn...
ThaiGirlsWild.18.12.03.Panda...
RodneyMoore.18.09.11.Lynn.Pl...
TeachMeFisting.18.12.17.Lady...
SapphicErotica.18.12.17.Lady...
Stunning18.18.12.17.Juliet.W...
RodneyMoore.18.09.27.Klaudia...
SweetSinner.18.12.18.India.S...
RKPrime.18.12.17.Bonnie.Rott...
PornMegaLoad.18.12.15.Korina...
ShockChallenge.2018.12.15.Mi...
PornMegaLoad.18.12.17.Samant...
ReadyOrNotHereICum.18.12.18....
Nubiles.18.12.16.Laura.Angel...
RealGirlsGoneBad.18.12.15.Pa...

3D
Limbradur.und.die.Magie.der....
Kaluoka.Hina.Das.Zauberriff....
Limbradur.und.die.Magie.der....
Smallfoot.3D.2018.COMPLETE.B...
Smallfoot.Ein.eisigartiges.A...
Skyscraper.3D.2018.German.DL...
Meg.3D.2018.MULTi.COMPLETE.B...
Meg.3D.2018.German.DL.1080p....
Gans.im.Glueck.3D.2018.MULTi...
The.Art.of.Flight.3D.2011.Ge...
The.End.Of.The.World.3D.2010...
The.First.Avenger.Civil.War....
Die.Unglaublichen.2.2018.3D....
Skyscraper.3D.2018.MULTi.COM...
Ant-Man.And.The.Wasp.3D.2018...

Old_Stuff
Akte.X.S05.German.DTS.DL.108...
Akte.X.S04.German.DTS.DL.108...
Akte.X.S03.German.DTS.DL.108...
Dunkirk.1958.COMPLETE.BLURAY...
Das.Wunder.von.Manhattan.199...
The.Amazing.Spiderman.2.Rise...
Rise.of.the.Predator.2014.Ge...
Detective.Dee.und.das.Geheim...
Detective.Dee.Und.Der.Fluch....
Ghost.Rider.Spirit.of.Vengea...
Species.IV.Das.Erwachen.2007...
Species.IV.Das.Erwachen.2007...
Hotel.Transsilvanien.2012.Ge...
The.Dead.2010.German.DL.1080...
The.Dead.2.India.2013.German...

Filme
Zwei.tolle.Kaefer.raeumen.au...
Zwei.tolle.Kaefer.raeumen.au...
Der.Koenig.und.ich.1956.GERM...
Die.Maedchen.von.Rochefort.1...
Frau.zu.verschenken.1978.GER...
Freddy.und.das.Lied.der.Prae...
Oliver.Twist.1948.GERMAN.FS....
Stunksitzung.Doener.for.One....
Zwei.Weihnachtshunde.2005.GE...
Dornroeschen.2009.GERMAN.720...
Der.Weihnachtshund.2004.GERM...
Erdrutsch.Wenn.die.Welt.vers...
Erdrutsch.Wenn.die.Welt.vers...
Jetzt.bringen.wir.unsere.Mae...
Ring.2.2005.German.1080p.HDT...
Ring.2.2005.German.720p.HDTV...
Spy.Kids.2.Die.Rueckkehr.der...
Spy.Kids.2.Die.Rueckkehr.der...
Wenn.der.Mond.auf.die.Erde.s...
Wenn.der.Mond.auf.die.Erde.s...
Young.Guns.II.1990.GERMAN.AC...
Zeichen.des.Boesen.Die.Runen...
Scary.Movie.2000.German.DL.1...
Schaendung.2014.German.1080p...

 
 
Oliver.Twist.1948.GERMAN.FS.720p.HDTV.x264-DUNGHiLL

Jahr: 1948
Genre: Abenteuer, Drama
Sprache: Deutsch AC3
Laufzeit: 1h 29mn
Bitrate: 4 958 Kbps
Format: MKV
Größe: 3.09 GiB
Release:

Beschreibung:
Oliver Twist (John Howard Davies) ist seit seiner Geburt ein Waisenkind, da seine Mutter starb, als sie ihn gebar. So wächst Oliver zunchst in einem Waisenhaus auf und kommt später bei den Sowerberrys unter, die ein Beerdigungsunternehmen führen. Doch schon früh reißt er aus und geht nach London, wo er auf den Gauner Fagin (Alec guinness) trifft. Der führt in zu seiner Bande und bringt ihm die Kunst des Taschendiebstahls bei. Doch gleich bei seinem ersten Raubeszug wird er erwischt und festgenommen. Er wird unter die Obhut von Mr. Brownlow (Henry Stephenson) gestellt. Ein anderer Ganove aus Fagins Bande, Bill Sikes (Robert Newton) kann herausfinden, wo Oliver sich aufhält und beschließt, ihn aus dem Haus der Brownlows zu befreien. Doch nach der Befreiungsaktion hält es Bills Freundin Nancy (Kay Walsh) für besser, Oliver wieder zu den Brownlows zu bringen.


Complete name                            : dung-oliver_twist_1948_720p.mkv
Format                                   : Matroska
Format version                           : Version 4 / Version 2
File size                                : 3.09 GiB
Duration                                 : 1h 29mn
Overall bit rate                         : 4 958 Kbps
Encoded date                             : UTC 2018-12-31T12:51:18Z
Writing application                      : HandBrake 1.1.2 2018090500
Writing library                          : Lavf57.7.2

Video
ID                                       : 1
Format                                   : AVC
Format/Info                              : Advanced Video Codec
Format profile                           : High@L4.1
Format settings, CABAC                   : Yes
Format settings, ReFrames                : 5 frames
Codec ID                                 : V_MPEG4/ISO/AVC
Duration                                 : 1h 29mn
Bit rate                                 : 4 475 Kbps
Width                                    : 956 pixels
Height                                   : 720 pixels
Display aspect ratio                     : 4:3
Frame rate mode                          : Constant
Frame rate                               : 25.000 fps
Color space                              : YUV
Chroma subsampling                       : 4:2:0
Bit depth                                : 8 bits
Scan type                                : Progressive
Bits/(Pixel*Frame)                       : 0.260
Stream size                              : 2.79 GiB (90%)
Writing library                          : x264 core 155 r2901 7d0ff22
Encoding settings                        : cabac=1 / ref=5 / deblock=1:-3:-3 / analyse=0x3:0x113 / me=umh / subme=7 / psy=1 / psy_rd=1.00:0.00 / mixed_ref=1 / me_range=16 / chroma_me=1 / trellis=1 / 8x8dct=1 / cqm=0 / deadzone=21,11 / fast_pskip=1 / chroma_qp_offset=-2 / threads=6 / lookahead_threads=1 / sliced_threads=0 / nr=0 / decimate=1 / interlaced=0 / bluray_compat=0 / constrained_intra=0 / bframes=3 / b_pyramid=2 / b_adapt=2 / b_bias=0 / direct=3 / weightb=1 / open_gop=0 / weightp=2 / keyint=250 / keyint_min=25 / scenecut=40 / intra_refresh=0 / rc_lookahead=50 / rc=crf / mbtree=1 / crf=19.0 / qcomp=0.60 / qpmin=0 / qpmax=69 / qpstep=4 / vbv_maxrate=62500 / vbv_bufsize=78125 / crf_max=0.0 / nal_hrd=none / filler=0 / ip_ratio=1.40 / aq=1:1.00
Default                                  : Yes
Forced                                   : No
Color primaries                          : BT.709
Transfer characteristics                 : BT.709
Matrix coefficients                      : BT.709

Audio
ID                                       : 2
Format                                   : AC-3
Format/Info                              : Audio Coding 3
Mode extension                           : CM (complete main)
Format settings, Endianness              : Big
Codec ID                                 : A_AC3
Duration                                 : 1h 29mn
Bit rate mode                            : Constant
Bit rate                                 : 384 Kbps
Channel(s)                               : 2 channels
Channel positions                        : Front: L R
Sampling rate                            : 48.0 KHz
Bit depth                                : 16 bits
Compression mode                         : Lossy
Stream size                              : 245 MiB (8%)
Title                                    : Stereo
Language                                 : German
Default                                  : Yes
Forced                                   : No


Download:
Share Online Share OnlineShare OnlineShare Online
 

Kommentare