HD-AREA wünscht Euch eine besinnliche Weihnachtszeit ;)

DNS SERVER AENDERNum der staatlichen Zensur zu umgehen. Sollten wir von eurem Provider geseprrt werden, nutzt den TOR BROWSER oder ändert euren DNS SERVER.

Filmwünsche können bei uns im Forum abgegeben werden

Wir Speichern Nicht




 
 
 
Top Releases
Kill.Bill.The.Whole.Bloody.A...
Kill.Bill.The.Whole.Bloody.A...
Meine.schoene.innere.Sonne.2...
Meine.schoene.innere.Sonne.2...
Meine.schoene.innere.Sonne.2...
Mountain.2017.DOKU.DUAL.COMP...
Eho.Echo.2016.German.AC3.108...
Constantine.City.of.Demons.T...
Constantine.City.of.Demons.T...
Constantine.City.of.Demons.T...

Cinedubs
Aquaman.TS.LD.German.DL.720p...
Eho.Echo.German.720p.WEBRip....
Eho.Echo.German.1080p.WEBRip...
Bad.Times.at.the.El.Royale.2...
Bad.Spies.2018.German.DL.AC3...
Aquaman.2018.GERMAN.AC3.MD.7...
Bad.Spies.German.DL.AC3.Dubb...
Bad.Spies.German.DL.AC3.Dubb...
Bad.Times.at.the.El.Royale.G...
Bad.Times.at.the.El.Royale.G...

Neuerscheinungen 2017-18
Ben.1972.DUAL.COMPLETE.BLURA...
In.Love.and.War.1996.German....
Der.Teufelsschrei.Evilspeak....
Der.Teufelsschrei.THEATRICAL...
When.Angels.Sleep.2018.Germa...
Hudsucker.Der.grosse.Sprung....
Assault.Anschlag.bei.Nacht.A...
Subconscious.Cruelty.2000.Ge...
How.It.Ends.2018.German.AC3D...
Subconscious.Cruelty.2000.MU...

XXX
RKPrime.18.12.17.Bonnie.Rott...
PornMegaLoad.18.12.15.Korina...
ShockChallenge.2018.12.15.Mi...
PornMegaLoad.18.12.17.Samant...
ReadyOrNotHereICum.18.12.18....
Nubiles.18.12.16.Laura.Angel...
RealGirlsGoneBad.18.12.15.Pa...
PornStreamLive.18.12.15.Ging...
RodneyMoore.18.07.19.Mischie...
Penthouse.Pornville.XXX.720p...
SexAndSubmission.18.11.16.De...
PetiteBallerinasFucked.18.11...
RKPrime.18.12.18.Adriana.Che...
Nubiles.18.12.16.Elina.De.Le...
ShockChallenge.2018.12.08.So...
NothingButCurves.18.12.11.Li...
Sperma-Studio.18.12.09.Sperm...
Nerd.Pervert.Vol.39.XXX.1080...
PureTaboo.18.12.18.Emily.Wil...
Nubiles.18.11.20.Jill.B.Take...

3D
Limbradur.und.die.Magie.der....
Kaluoka.Hina.Das.Zauberriff....
Limbradur.und.die.Magie.der....
Smallfoot.3D.2018.COMPLETE.B...
Smallfoot.Ein.eisigartiges.A...
Skyscraper.3D.2018.German.DL...
Meg.3D.2018.MULTi.COMPLETE.B...
Meg.3D.2018.German.DL.1080p....
Gans.im.Glueck.3D.2018.MULTi...
The.Art.of.Flight.3D.2011.Ge...
The.End.Of.The.World.3D.2010...
The.First.Avenger.Civil.War....
Die.Unglaublichen.2.2018.3D....
Skyscraper.3D.2018.MULTi.COM...
Ant-Man.And.The.Wasp.3D.2018...

Old_Stuff
Akte.X.S05.German.DTS.DL.108...
Akte.X.S04.German.DTS.DL.108...
Akte.X.S03.German.DTS.DL.108...
Dunkirk.1958.COMPLETE.BLURAY...
Das.Wunder.von.Manhattan.199...
The.Amazing.Spiderman.2.Rise...
Rise.of.the.Predator.2014.Ge...
Detective.Dee.und.das.Geheim...
Detective.Dee.Und.Der.Fluch....
Ghost.Rider.Spirit.of.Vengea...
Species.IV.Das.Erwachen.2007...
Species.IV.Das.Erwachen.2007...
Hotel.Transsilvanien.2012.Ge...
The.Dead.2010.German.DL.1080...
The.Dead.2.India.2013.German...

Filme
T-Rex.Das.wahre.Biest.hinter...
Scheidung.auf.Finnisch.2009....
Schatten.und.Nebel.1991.Germ...
Schatten.1959.German.DL.1080...
Scenic.Route.2013.German.DL....
Schande.2008.German.DL.1080p...
Legend.2015.German.1080p.DL....
Dumbo.1941.Kino.Synchro.Germ...
The.Leftovers.S01-S03.COMPLE...
Wyatt.Earp.1994.German.DL.10...
Eisenstein.in.Guanajuato.201...
Cinderella.1950.Kino.Synchro...
Dinner.for.one.Der.neunzigst...
VW.Kaefer.Volkswagen.fuer.di...
Ueber.den.Todespass.1954.GER...
Superbad.2007.German.DL.1080...
Ostfriesenblut.2018.German.7...
Iran.bittersuess.-.Reise.dur...
Batman.Raetsel.um.Batwoman.2...
Batman.Raetsel.um.Batwoman.2...
Normandie.Die.letzte.Mission...
Batman.Raetsel.um.Batwoman.2...
Urban.Priol.Tilt.Tschuessiko...
Lisa.Eckhart.Als.ob.Sie.Bess...

 
 
Schatten.1959.German.DL.1080p.BluRay.x264-RSG

Jahr: 1959
Genre: Drama
Sprache: Deutsch DTS | Englisch DTS
Laufzeit: 1h 21mn
Bitrate: 13.9 Mbps
Format: MKV
Größe: 7.95 GiB
Release:

Beschreibung:

Leila lebt in New York und ist Mulattin. Aufgrund ihrer hellen Hautfarbe halten viele sie für eine Weiße. Sie hütet ihre wahre Pikmentierung wie ein Geheimnis. Auf einer Party lernt Leila den weißen Tony kennen. Sie verliebt sich in den jungen Mann. Doch als der hinter ihre wahre Abstammung und Hautfarbe kommt, verläßt er Leila. Eine Katastrophe für die junge Frau…



Complete name                            : rsg-schatten-1080p.mkv
Format                                   : Matroska
Format version                           : Version 2
File size                                : 7.95 GiB
Duration                                 : 1h 21mn
Overall bit rate                         : 13.9 Mbps
Writing application                      : mkvmerge v4.1.1 ('Bouncin' Back') built on Jul  3 2010 22:54:08
Writing library                          : libebml v1.0.0 + libmatroska v1.0

Video
ID                                       : 1
Format                                   : AVC
Format/Info                              : Advanced Video Codec
Format profile                           : High@L4.1
Format settings, CABAC                   : Yes
Format settings, ReFrames                : 4 frames
Codec ID                                 : V_MPEG4/ISO/AVC
Duration                                 : 1h 21mn
Bit rate                                 : 12.3 Mbps
Width                                    : 1 440 pixels
Height                                   : 1 080 pixels
Display aspect ratio                     : 4:3
Frame rate mode                          : Constant
Frame rate                               : 24.000 fps
Color space                              : YUV
Chroma subsampling                       : 4:2:0
Bit depth                                : 8 bits
Scan type                                : Progressive
Bits/(Pixel*Frame)                       : 0.331
Stream size                              : 6.91 GiB (87%)
Writing library                          : x264 core 129 r2245 bc13772
Encoding settings                        : cabac=1 / ref=4 / deblock=1:-1:-1 / analyse=0x3:0x133 / me=umh / subme=7 / psy=1 / psy_rd=1.00:0.00 / mixed_ref=1 / me_range=16 / chroma_me=1 / trellis=1 / 8x8dct=1 / cqm=0 / deadzone=21,11 / fast_pskip=0 / chroma_qp_offset=-1 / threads=12 / lookahead_threads=2 / sliced_threads=0 / nr=0 / decimate=1 / interlaced=0 / bluray_compat=0 / constrained_intra=0 / bframes=3 / b_pyramid=2 / b_adapt=1 / b_bias=0 / direct=1 / weightb=1 / open_gop=0 / weightp=2 / keyint=240 / keyint_min=24 / scenecut=40 / intra_refresh=0 / rc_lookahead=40 / rc=2pass / mbtree=1 / bitrate=12342 / ratetol=1.0 / qcomp=0.60 / qpmin=10 / qpmax=69 / qpstep=4 / cplxblur=20.0 / qblur=0.5 / ip_ratio=1.40 / aq=1:1.00
Language                                 : English
Default                                  : Yes
Forced                                   : No

Audio #1
ID                                       : 2
Format                                   : DTS
Format/Info                              : Digital Theater Systems
Mode                                     : 16
Format settings, Endianness              : Big
Codec ID                                 : A_DTS
Duration                                 : 1h 21mn
Bit rate mode                            : Constant
Bit rate                                 : 768 Kbps
Channel(s)                               : 6 channels
Channel(s)_Original                      : 1 channel
Channel positions                        : Front: C
Sampling rate                            : 48.0 KHz
Bit depth                                : 24 bits
Compression mode                         : Lossy
Stream size                              : 450 MiB (6%)
Language                                 : German
Default                                  : Yes
Forced                                   : No

Audio #2
ID                                       : 3
Format                                   : DTS
Format/Info                              : Digital Theater Systems
Mode                                     : 16
Format settings, Endianness              : Big
Codec ID                                 : A_DTS
Duration                                 : 1h 21mn
Bit rate mode                            : Constant
Bit rate                                 : 768 Kbps
Channel(s)                               : 6 channels
Channel(s)_Original                      : 1 channel
Channel positions                        : Front: C
Sampling rate                            : 48.0 KHz
Bit depth                                : 24 bits
Compression mode                         : Lossy
Stream size                              : 450 MiB (6%)
Language                                 : English
Default                                  : Yes
Forced                                   : No


Download:
Share Online Share OnlineShare OnlineShare Online
 

Kommentare