HD-AREA wünscht Euch eine besinnliche Weihnachtszeit ;)

DNS SERVER AENDERNum der staatlichen Zensur zu umgehen. Sollten wir von eurem Provider geseprrt werden, nutzt den TOR BROWSER oder ändert euren DNS SERVER.

Filmwünsche können bei uns im Forum abgegeben werden

Wir Speichern Nicht




 
 
 
Top Releases
Kill.Bill.The.Whole.Bloody.A...
Kill.Bill.The.Whole.Bloody.A...
Meine.schoene.innere.Sonne.2...
Meine.schoene.innere.Sonne.2...
Meine.schoene.innere.Sonne.2...
Mountain.2017.DOKU.DUAL.COMP...
Eho.Echo.2016.German.AC3.108...
Constantine.City.of.Demons.T...
Constantine.City.of.Demons.T...
Constantine.City.of.Demons.T...

Cinedubs
Aquaman.TS.LD.German.DL.720p...
Eho.Echo.German.720p.WEBRip....
Eho.Echo.German.1080p.WEBRip...
Bad.Times.at.the.El.Royale.2...
Bad.Spies.2018.German.DL.AC3...
Aquaman.2018.GERMAN.AC3.MD.7...
Bad.Spies.German.DL.AC3.Dubb...
Bad.Spies.German.DL.AC3.Dubb...
Bad.Times.at.the.El.Royale.G...
Bad.Times.at.the.El.Royale.G...

Neuerscheinungen 2017-18
Ben.1972.DUAL.COMPLETE.BLURA...
In.Love.and.War.1996.German....
Der.Teufelsschrei.Evilspeak....
Der.Teufelsschrei.THEATRICAL...
When.Angels.Sleep.2018.Germa...
Hudsucker.Der.grosse.Sprung....
Assault.Anschlag.bei.Nacht.A...
Subconscious.Cruelty.2000.Ge...
How.It.Ends.2018.German.AC3D...
Subconscious.Cruelty.2000.MU...

XXX
RKPrime.18.12.17.Bonnie.Rott...
PornMegaLoad.18.12.15.Korina...
ShockChallenge.2018.12.15.Mi...
PornMegaLoad.18.12.17.Samant...
ReadyOrNotHereICum.18.12.18....
Nubiles.18.12.16.Laura.Angel...
RealGirlsGoneBad.18.12.15.Pa...
PornStreamLive.18.12.15.Ging...
RodneyMoore.18.07.19.Mischie...
Penthouse.Pornville.XXX.720p...
SexAndSubmission.18.11.16.De...
PetiteBallerinasFucked.18.11...
RKPrime.18.12.18.Adriana.Che...
Nubiles.18.12.16.Elina.De.Le...
ShockChallenge.2018.12.08.So...
NothingButCurves.18.12.11.Li...
Sperma-Studio.18.12.09.Sperm...
Nerd.Pervert.Vol.39.XXX.1080...
PureTaboo.18.12.18.Emily.Wil...
Nubiles.18.11.20.Jill.B.Take...

3D
Limbradur.und.die.Magie.der....
Kaluoka.Hina.Das.Zauberriff....
Limbradur.und.die.Magie.der....
Smallfoot.3D.2018.COMPLETE.B...
Smallfoot.Ein.eisigartiges.A...
Skyscraper.3D.2018.German.DL...
Meg.3D.2018.MULTi.COMPLETE.B...
Meg.3D.2018.German.DL.1080p....
Gans.im.Glueck.3D.2018.MULTi...
The.Art.of.Flight.3D.2011.Ge...
The.End.Of.The.World.3D.2010...
The.First.Avenger.Civil.War....
Die.Unglaublichen.2.2018.3D....
Skyscraper.3D.2018.MULTi.COM...
Ant-Man.And.The.Wasp.3D.2018...

Old_Stuff
Akte.X.S05.German.DTS.DL.108...
Akte.X.S04.German.DTS.DL.108...
Akte.X.S03.German.DTS.DL.108...
Dunkirk.1958.COMPLETE.BLURAY...
Das.Wunder.von.Manhattan.199...
The.Amazing.Spiderman.2.Rise...
Rise.of.the.Predator.2014.Ge...
Detective.Dee.und.das.Geheim...
Detective.Dee.Und.Der.Fluch....
Ghost.Rider.Spirit.of.Vengea...
Species.IV.Das.Erwachen.2007...
Species.IV.Das.Erwachen.2007...
Hotel.Transsilvanien.2012.Ge...
The.Dead.2010.German.DL.1080...
The.Dead.2.India.2013.German...

Filme
Wyatt.Earp.1994.German.DL.10...
Eisenstein.in.Guanajuato.201...
Cinderella.1950.Kino.Synchro...
Dinner.for.one.Der.neunzigst...
VW.Kaefer.Volkswagen.fuer.di...
Ueber.den.Todespass.1954.GER...
Superbad.2007.German.DL.1080...
Ostfriesenblut.2018.German.7...
Iran.bittersuess.-.Reise.dur...
Batman.Raetsel.um.Batwoman.2...
Batman.Raetsel.um.Batwoman.2...
Normandie.Die.letzte.Mission...
Batman.Raetsel.um.Batwoman.2...
Urban.Priol.Tilt.Tschuessiko...
Lisa.Eckhart.Als.ob.Sie.Bess...
By.the.Gun.Zeit.der.Vergeltu...
Tommy.Boy.1995.German.AC3D.D...
Die.Simpsons.Der.Film.2007.G...
The.Leftovers.S01-S03.COMPLE...
Die.Fuersten.der.Dunkelheit....
Air.2015.German.AC3D.DL.1080...
Keine.halben.Sachen.2.2004.G...
Das.Jerico.Projekt.Im.Kopf.d...
Ghetto.Busters.1988.German.D...

 
 
Meine.schoene.innere.Sonne.2017.German.AC3D.DL.720p.BluRay.x264-CLASSiCALHD​

Jahr: 2017
Genre: Komödie, Drama
Sprache: Deutsch AC3 | Englisch DTS
Laufzeit: 1h 35mn
Bitrate: 7 023 Kbps
Format: MKV
Größe: 4.67 GiB
Release:

Beschreibung:

Umgeben von Menschen und trotzdem allein. Isabelle (Juliette Binoche) lebt das Leben eines Singles in der Großstadt Paris. Sie ist eine Frau mit Vergangenheit – stark und unabhängig, als Künstlerin anerkannt, aber dafür wenig erfolgreich, wenn es um die Liebe geht.
Ihre Suche nach der wahren Liebe scheitert immer wieder an der Diskrepanz zwischen ihrem Anspruch und den Kompromissen, die sie eingehen müsste. Zu groß scheint die Kluft zwischen dem, was Frauen wollen und Männer bereit sind zu geben.
In ihrer Ratlosigkeit erhofft sich Isabelle ausgerechnet von einem Wahrsager (Gérard Depardieu) die Antwort auf die Frage, die sie mehr als alles andere beschäftigt – gibt es die Liebe fürs Leben oder ist sie nur eine Utopie?



Complete name                            : classicalhd-meine.schoene.innere.sonne-720p.mkv
Format                                   : Matroska
Format version                           : Version 4 / Version 2
File size                                : 4.67 GiB
Duration                                 : 1h 35mn
Overall bit rate                         : 7 023 Kbps
Encoded date                             : UTC 2018-12-30 16:00:21
Writing application                      : mkvmerge v29.0.0 ('Like It Or Not') 32-bit
Writing library                          : libebml v1.3.6 + libmatroska v1.4.9
DURATION                                 : 01:35:10.912000000
NUMBER_OF_FRAMES                         : 178466
NUMBER_OF_BYTES                          : 319811072
_STATISTICS_WRITING_APP                  : mkvmerge v29.0.0 ('Like It Or Not') 32-bit
_STATISTICS_WRITING_DATE_UTC             : 2018-12-30 16:00:21
_STATISTICS_TAGS                         : BPS DURATION NUMBER_OF_FRAMES NUMBER_OF_BYTES

Video
ID                                       : 1
Format                                   : AVC
Format/Info                              : Advanced Video Codec
Format profile                           : High@L4.1
Format settings, CABAC                   : Yes
Format settings, ReFrames                : 5 frames
Codec ID                                 : V_MPEG4/ISO/AVC
Duration                                 : 1h 35mn
Bit rate                                 : 5 083 Kbps
Width                                    : 1 152 pixels
Height                                   : 720 pixels
Display aspect ratio                     : 16:10
Frame rate mode                          : Constant
Frame rate                               : 24.000 fps
Color space                              : YUV
Chroma subsampling                       : 4:2:0
Bit depth                                : 8 bits
Scan type                                : Progressive
Bits/(Pixel*Frame)                       : 0.255
Stream size                              : 3.28 GiB (70%)
Writing library                          : x264 core 155 r2901 7d0ff22
Encoding settings                        : cabac=1 / ref=5 / deblock=1:-3:-3 / analyse=0x3:0x133 / me=umh / subme=8 / psy=1 / psy_rd=1.00:0.00 / mixed_ref=1 / me_range=16 / chroma_me=1 / trellis=1 / 8x8dct=1 / cqm=0 / deadzone=21,11 / fast_pskip=0 / chroma_qp_offset=-2 / threads=22 / lookahead_threads=3 / sliced_threads=0 / nr=0 / decimate=1 / interlaced=0 / bluray_compat=0 / constrained_intra=0 / bframes=3 / b_pyramid=2 / b_adapt=1 / b_bias=0 / direct=3 / weightb=1 / open_gop=0 / weightp=2 / keyint=250 / keyint_min=24 / scenecut=40 / intra_refresh=0 / rc_lookahead=50 / rc=2pass / mbtree=1 / bitrate=5083 / ratetol=1.0 / qcomp=0.60 / qpmin=0 / qpmax=69 / qpstep=4 / cplxblur=20.0 / qblur=0.5 / vbv_maxrate=62500 / vbv_bufsize=78125 / nal_hrd=none / filler=0 / ip_ratio=1.40 / aq=1:1.00
Language                                 : French
Default                                  : Yes
Forced                                   : Yes

Audio #1
ID                                       : 2
Format                                   : AC-3
Format/Info                              : Audio Coding 3
Mode extension                           : CM (complete main)
Format settings, Endianness              : Big
Codec ID                                 : A_AC3
Duration                                 : 1h 35mn
Bit rate mode                            : Constant
Bit rate                                 : 448 Kbps
Channel(s)                               : 6 channels
Channel positions                        : Front: L C R, Side: L R, LFE
Sampling rate                            : 48.0 KHz
Bit depth                                : 16 bits
Compression mode                         : Lossy
Delay relative to video                  : 14ms
Stream size                              : 305 MiB (6%)
Language                                 : German
Default                                  : Yes
Forced                                   : Yes

Audio #2
ID                                       : 3
Format                                   : DTS
Format/Info                              : Digital Theater Systems
Mode                                     : 16
Format settings, Endianness              : Big
Codec ID                                 : A_DTS
Duration                                 : 1h 35mn
Bit rate mode                            : Constant
Bit rate                                 : 1 509 Kbps
Channel(s)                               : 6 channels
Channel positions                        : Front: L C R, Side: L R, LFE
Sampling rate                            : 48.0 KHz
Bit depth                                : 24 bits
Compression mode                         : Lossy
Stream size                              : 1.00 GiB (21%)
Language                                 : French
Default                                  : No
Forced                                   : No

Text
ID                                       : 4
Format                                   : UTF-8
Codec ID                                 : S_TEXT/UTF8
Codec ID/Info                            : UTF-8 Plain Text
Language                                 : English
Default                                  : No
Forced                                   : No


Download:
Share Online Share OnlineShare OnlineShare Online
 

Kommentare