HD-AREA wünscht Euch eine besinnliche Weihnachtszeit ;)

DNS SERVER AENDERNum der staatlichen Zensur zu umgehen. Sollten wir von eurem Provider geseprrt werden, nutzt den TOR BROWSER oder ändert euren DNS SERVER.

Filmwünsche können bei uns im Forum abgegeben werden

Wir Speichern Nicht




 
 
 
Top Releases
Mountain.2017.German.DL.DOKU...
Mountain.2017.German.DL.DOKU...
Eleanor.und.Colette.2017.Ger...
Hubert.und.Staller.Eine.scho...
Outrage.Coda.2017.German.AC3...
Sie.nannten.ihn.Jeeg.Robot.2...
Bird.Box.Schliesse.deine.Aug...
Being.Mario.Goetze.2018.GERM...
Being.Mario.Goetze.2018.GERM...
Liebe.Bringt.Alles.Ins.Rolle...

Cinedubs
Eho.Echo.German.720p.WEBRip....
Eho.Echo.German.1080p.WEBRip...
Bad.Times.at.the.El.Royale.2...
Bad.Spies.2018.German.DL.AC3...
Aquaman.2018.GERMAN.AC3.MD.7...
Bad.Spies.German.DL.AC3.Dubb...
Bad.Spies.German.DL.AC3.Dubb...
Bad.Times.at.the.El.Royale.G...
Bad.Times.at.the.El.Royale.G...
The.Guilty.German.DL.AC3.Dub...

Neuerscheinungen 2017-18
In.Love.and.War.1996.German....
Der.Teufelsschrei.Evilspeak....
Der.Teufelsschrei.THEATRICAL...
When.Angels.Sleep.2018.Germa...
Hudsucker.Der.grosse.Sprung....
Assault.Anschlag.bei.Nacht.A...
Subconscious.Cruelty.2000.Ge...
How.It.Ends.2018.German.AC3D...
Subconscious.Cruelty.2000.MU...
Welcome.Home.2018.German.DD5...

XXX
JapanHDV.18.12.18.Asian.Woma...
JulesJordan.18.12.18.Lana.Rh...
IKnowThatGirl.18.12.16.Aria....
HungryCumEaters.18.12.15.Ait...
LaurenPhillips.18.01.05.Laur...
LANewGirl.18.12.11.Chloe.Tem...
LaurenPhillips.18.02.23.Cumm...
LaurenPhillips.18.04.06.Twer...
Hustler.18.12.16.Olivia.Aust...
LaurenPhillips.18.04.13.Plea...
Kemaco.36.XXX.1080p.WEBRip.M...
LaurenPhillips.18.02.02.Laur...
EvilAngel.Dark.Meat.10.XXX.1...
ImmoralLive.18.12.18.Gabi.Go...
JaysPOV.18.12.15.Aften.Opal....
LaurenPhillips.18.01.26.Lips...
JulesJordan.18.12.16.Autumn....
EvilAngel.Hot.N.Heavy.DPs.XX...
LaurenPhillips.18.02.09.Milk...
LaurenPhillips.18.03.16.Squi...

3D
Limbradur.und.die.Magie.der....
Kaluoka.Hina.Das.Zauberriff....
Limbradur.und.die.Magie.der....
Smallfoot.3D.2018.COMPLETE.B...
Smallfoot.Ein.eisigartiges.A...
Skyscraper.3D.2018.German.DL...
Meg.3D.2018.MULTi.COMPLETE.B...
Meg.3D.2018.German.DL.1080p....
Gans.im.Glueck.3D.2018.MULTi...
The.Art.of.Flight.3D.2011.Ge...
The.End.Of.The.World.3D.2010...
The.First.Avenger.Civil.War....
Die.Unglaublichen.2.2018.3D....
Skyscraper.3D.2018.MULTi.COM...
Ant-Man.And.The.Wasp.3D.2018...

Old_Stuff
Akte.X.S05.German.DTS.DL.108...
Akte.X.S04.German.DTS.DL.108...
Akte.X.S03.German.DTS.DL.108...
Dunkirk.1958.COMPLETE.BLURAY...
Das.Wunder.von.Manhattan.199...
The.Amazing.Spiderman.2.Rise...
Rise.of.the.Predator.2014.Ge...
Detective.Dee.und.das.Geheim...
Detective.Dee.Und.Der.Fluch....
Ghost.Rider.Spirit.of.Vengea...
Species.IV.Das.Erwachen.2007...
Species.IV.Das.Erwachen.2007...
Hotel.Transsilvanien.2012.Ge...
The.Dead.2010.German.DL.1080...
The.Dead.2.India.2013.German...

Filme
Fuller.House.S01-S03.COMPLET...
Fuller.House.S04.COMPLETE.GE...
Fuller.House.S04.COMPLETE.GE...
Die.Medici.Herrscher.von.Flo...
Die.Medici.Herrscher.von.Flo...
In.Love.and.War.1996.German....
Blackjack.Der.Bodyguard.1998...
Blackjack.Der.Bodyguard.1998...
Air.Rage.2001.German.1080p.H...
Air.Rage.2001.German.720p.HD...
Die.Doomsday.Gleichung.2009....
The.Gifted.S02.GERMAN.DL.108...
The.Gifted.S02.GERMAN.720p.H...
Die.Conners.S01.German.DD51....
Die.Conners.S01.German.DD51....
Ice.S02.GERMAN.DL.1080p.HDTV...
Ice.S02.GERMAN.DL.720p.HDTV....
Vikings.S05.GERMAN.1080p.Web...
Vikings.S05.GERMAN.720p.WebH...
Swedish.Dicks.S02.COMPLETE.G...
Outrage.Beyond.2012.German.A...
Der.Teufel.traegt.Prada.2006...
Mad.Max.1979.German.AC3.DL.1...
Hostel.2005.Open.Matte.Germa...

 
 
Die.Medici.Herrscher.von.Florenz.S02.COMPLETE.GERMAN.DL.720p.HDTV.x264-MDGP

Jahr: 2018
Genre: Biographie | Drama | Geschichte
Sprache: Deutsch AC3 | Englisch AC3
Laufzeit: 55min je Folge
Bitrate: 1500 Kbps
Format: MKV
Größe: 850 MB je Folge
Release:

Beschreibung:

Der Serienschöpfer Frank Spotnitz hat angekündigt, dass, nachdem die erste Staffel Giovanni (1360 – 1429) und seinen Sohn Cosimo (1389 – 1464) in den Vordergrund stellte, sich die zweite Season auf das Leben des Großenkels von Cosimo konzentrieren soll. Die neuen Folgen sollen einen Zeitsprung von 20 Jahren machen und die Geschichte von Lorenzo (1449 – 1492) erzählen, vermutlich sogar über zwei Staffeln. Indirekt steht damit schon eine dritte Staffel im Raum – sofern die historische Serie weiterhin erfolgreich bleibt.



General
Complete name                            : Die.Medici.Herrscher.von.Florenz.S02E01.Alte.Rechnungen.GERMAN.DL.720p.HDTV.x264.REPACK-MDGP\mdgp-diemedicis02e01rp-720p.mkv
Format                                   : Matroska
Format version                           : Version 4 / Version 2
File size                                : 853 MiB
Duration                                 : 55mn 45s
Overall bit rate                         : 2 140 Kbps
Encoded date                             : UTC 2018-12-25 17:08:59
Writing application                      : mkvmerge v7.7.0 ('Six Voices') 64bit built on Feb 28 2015 23:39:33
Writing library                          : libebml v1.3.1 + libmatroska v1.4.2
DURATION                                 : 00:55:45.504000000
NUMBER_OF_FRAMES                         : 104547
NUMBER_OF_BYTES                          : 80292096
_STATISTICS_WRITING_APP                  : mkvmerge v7.7.0 ('Six Voices') 64bit built on Feb 28 2015 23:39:33
_STATISTICS_WRITING_DATE_UTC             : 2018-12-25 17:08:59
_STATISTICS_TAGS                         : BPS DURATION NUMBER_OF_FRAMES NUMBER_OF_BYTES

Video
ID                                       : 1
Format                                   : AVC
Format/Info                              : Advanced Video Codec
Format profile                           : High@L4.1
Format settings, CABAC                   : Yes
Format settings, ReFrames                : 5 frames
Codec ID                                 : V_MPEG4/ISO/AVC
Duration                                 : 55mn 45s
Bit rate                                 : 1 521 Kbps
Width                                    : 1 280 pixels
Height                                   : 640 pixels
Display aspect ratio                     : 2.000
Frame rate mode                          : Constant
Frame rate                               : 25.000 fps
Color space                              : YUV
Chroma subsampling                       : 4:2:0
Bit depth                                : 8 bits
Scan type                                : Progressive
Bits/(Pixel*Frame)                       : 0.074
Stream size                              : 607 MiB (71%)
Writing library                          : x264 core 157 r2935 545de2f
Encoding settings                        : cabac=1 / ref=5 / deblock=1:-3:-3 / analyse=0x3:0x113 / me=umh / subme=7 / psy=1 / psy_rd=1.00:0.00 / mixed_ref=1 / me_range=16 / chroma_me=1 / trellis=1 / 8x8dct=1 / cqm=0 / deadzone=21,11 / fast_pskip=0 / chroma_qp_offset=-2 / threads=12 / lookahead_threads=2 / sliced_threads=0 / nr=0 / decimate=1 / interlaced=0 / bluray_compat=0 / constrained_intra=0 / bframes=3 / b_pyramid=2 / b_adapt=1 / b_bias=0 / direct=1 / weightb=1 / open_gop=0 / weightp=2 / keyint=250 / keyint_min=25 / scenecut=40 / intra_refresh=0 / rc_lookahead=40 / rc=crf / mbtree=1 / crf=20.0 / qcomp=0.60 / qpmin=0 / qpmax=69 / qpstep=4 / ip_ratio=1.40 / aq=1:1.00
Language                                 : German
Default                                  : Yes
Forced                                   : No
Color primaries                          : BT.709
Transfer characteristics                 : BT.709
Matrix coefficients                      : BT.709

Audio #1
ID                                       : 2
Format                                   : AC-3
Format/Info                              : Audio Coding 3
Mode extension                           : CM (complete main)
Format settings, Endianness              : Big
Codec ID                                 : A_AC3
Duration                                 : 55mn 45s
Bit rate mode                            : Constant
Bit rate                                 : 384 Kbps
Channel(s)                               : 6 channels
Channel positions                        : Front: L C R, Side: L R, LFE
Sampling rate                            : 48.0 KHz
Bit depth                                : 16 bits
Compression mode                         : Lossy
Stream size                              : 153 MiB (18%)
Language                                 : German
Default                                  : Yes
Forced                                   : No

Audio #2
ID                                       : 3
Format                                   : AC-3
Format/Info                              : Audio Coding 3
Mode extension                           : CM (complete main)
Format settings, Endianness              : Big
Codec ID                                 : A_AC3
Duration                                 : 55mn 45s
Bit rate mode                            : Constant
Bit rate                                 : 192 Kbps
Channel(s)                               : 2 channels
Channel positions                        : Front: L R
Sampling rate                            : 48.0 KHz
Bit depth                                : 16 bits
Compression mode                         : Lossy
Stream size                              : 76.6 MiB (9%)
Language                                 : English
Default                                  : No
Forced                                   : No



Download:
Share-Online.biz Share-Online.bizShare-Online.bizShare-Online.biz | Rapidgator.net Rapidgator.netRapidgator.netRapidgator.net
 

Kommentare