HD-AREA wünscht Euch eine besinnliche Weihnachtszeit ;)

DNS SERVER AENDERNum der staatlichen Zensur zu umgehen. Sollten wir von eurem Provider geseprrt werden, nutzt den TOR BROWSER oder ändert euren DNS SERVER.

Filmwünsche können bei uns im Forum abgegeben werden

Wir Speichern Nicht




 
 
 
Top Releases
Hubert.und.Staller.Eine.scho...
Outrage.Coda.2017.German.AC3...
Sie.nannten.ihn.Jeeg.Robot.2...
Bird.Box.Schliesse.deine.Aug...
Being.Mario.Goetze.2018.GERM...
Being.Mario.Goetze.2018.GERM...
Liebe.Bringt.Alles.Ins.Rolle...
Halloween.2018.German.DL.AC3...
Mogli.Legende.des.Dschungels...
Liebe.Bringt.Alles.Ins.Rolle...

Cinedubs
Eho.Echo.German.720p.WEBRip....
Eho.Echo.German.1080p.WEBRip...
Bad.Times.at.the.El.Royale.2...
Bad.Spies.2018.German.DL.AC3...
Aquaman.2018.GERMAN.AC3.MD.7...
Bad.Spies.German.DL.AC3.Dubb...
Bad.Spies.German.DL.AC3.Dubb...
Bad.Times.at.the.El.Royale.G...
Bad.Times.at.the.El.Royale.G...
The.Guilty.German.DL.AC3.Dub...

Neuerscheinungen 2017-18
Subconscious.Cruelty.2000.Ge...
How.It.Ends.2018.German.AC3D...
Subconscious.Cruelty.2000.MU...
Welcome.Home.2018.German.DD5...
Welcome.Home.2018.German.DD5...
Predator.Upgrade.2018.German...
The.Sun.at.Midnight.2016.Ger...
The.Bet.2006.German.DL.1080p...
The.Bet.2006.German.DL.1080p...
The.Dragon.Unleashed.2019.Ge...

XXX
FreakMobMedia.18.11.28.Adree...
FinishHim.18.12.14.Kitty.Cat...
HotAndMean.18.12.16.Daisy.Ma...
GirlsOutWest.18.12.18.Audrey...
GirlsOutWest.18.12.16.Alicia...
GirlsWay.18.12.16.Ashley.Ada...
GirlsGonePink.18.12.17.Abell...
FiLFExtra.E24.Cameron.Dee.An...
GirlsWay.18.12.17.Chloe.Cher...
FiLFExtra.E26.Amber.White.Am...
FiLFExtra.E22.Alaina.Kristar...
Hegre.18.12.18.A.Day.In.The....
GirlsGoneWild.18.12.14.Naudi...
ElegantAngel.Big.Wet.Interra...
FiLFExtra.E29.Valerie.White....
ElegantAngel.Big.Wet.Interra...
GroupSexGames.18.12.16.Dora....
Hitzefrei.18.12.11.Celina.Da...
HookupHotshot.E171.Emily.Wil...
GirlsOutWest.18.12.17.Kit.Ba...

3D
Limbradur.und.die.Magie.der....
Kaluoka.Hina.Das.Zauberriff....
Limbradur.und.die.Magie.der....
Smallfoot.3D.2018.COMPLETE.B...
Smallfoot.Ein.eisigartiges.A...
Skyscraper.3D.2018.German.DL...
Meg.3D.2018.MULTi.COMPLETE.B...
Meg.3D.2018.German.DL.1080p....
Gans.im.Glueck.3D.2018.MULTi...
The.Art.of.Flight.3D.2011.Ge...
The.End.Of.The.World.3D.2010...
The.First.Avenger.Civil.War....
Die.Unglaublichen.2.2018.3D....
Skyscraper.3D.2018.MULTi.COM...
Ant-Man.And.The.Wasp.3D.2018...

Old_Stuff
Akte.X.S05.German.DTS.DL.108...
Akte.X.S04.German.DTS.DL.108...
Akte.X.S03.German.DTS.DL.108...
Dunkirk.1958.COMPLETE.BLURAY...
Das.Wunder.von.Manhattan.199...
The.Amazing.Spiderman.2.Rise...
Rise.of.the.Predator.2014.Ge...
Detective.Dee.und.das.Geheim...
Detective.Dee.Und.Der.Fluch....
Ghost.Rider.Spirit.of.Vengea...
Species.IV.Das.Erwachen.2007...
Species.IV.Das.Erwachen.2007...
Hotel.Transsilvanien.2012.Ge...
The.Dead.2010.German.DL.1080...
The.Dead.2.India.2013.German...

Filme
Outrage.2010.German.AC3.DL.1...
Rocky.1976.German.AC3.DL.108...
Shaft.Noch.Fragen.2000.Germa...
Savage.Dog.2017.German.DL.10...
Rosa.Lebe.deine.Fantasie.201...
Rosemarys.Baby.1968.German.D...
Ronal.der.Barbar.2011.German...
The.Blade.Das.zerbrochene.Sc...
Savage.Streets.1984.German.D...
Savaged.UNCUT.2013.German.DL...
Nitro.28.Winter.GERMAN.AC3.D...
Mona.Lisa.1986.GERMAN.AC3.10...
Beyond.The.Brick.A.LEGO.Bric...
Eisbaeren.Abenteuer.Einer.Ju...
Ein.Pinguin.Kommt.Selten.All...
Satanic.Slaughter.2004.Germa...
Saturday.Morning.Massacre.20...
Christmas.Twister.2012.Germa...
Die.Fliege.II.1989.German.10...
Ski.Academy.1990.German.1080...
Das.Dorf.der.wilden.Tiere.GE...
The.Lodger.Der.Untermieter.2...
My.Girl.2.Meine.grosse.Liebe...
Gestohlene.Worte.Der.Roman.d...

 
 
Hubert.und.Staller.Eine.schoene.Bescherung.2018.German.DTS.1080p.BluRay.x265-SHOWEHD

Jahr: 2018
Genre: Komödie
Sprache: Deutsch DTS
Laufzeit: 1h 29mn
Bitrate: 4 450 Kbps
Format: MKV
Größe: 2.79 GiB
Release:

Beschreibung:

Kurz vor Heilig Abend wollen Hubert (Christian Tramitz) und Staller (Helmfried von Lüttichau) der 85-jährigen Rentnerin Hannelore Eissner einen Gefallen tun. Da sie seit einem Jahr ihre Rundfunkgebühren nicht gezahlt hat, hat das Revier für die Seniorin den fehlenden Betrag gesammelt. Damit wollen sie ihr den Ärger mit den Behörden ersparen. Die beiden Polizisten finden die alte Dame jedoch mumifiziert in ihrem Sessel sitzend vor. Als sich herausstellt, dass die Rentnerin keines natürlichen Todes gestorben ist und 400.000 Euro, die sie kurz vor ihrem Tod abgehoben hat, verschwunden sind, beginnen die Ermittlungen. Als die ersten Spuren zu einem mit seinem Schlitten verunglückten Nikolaus führen, läuten bei Hubert und Staller alle Weinachtsglocken.



Complete name                            : SHHD-Hubunstax265.mkv
Format                                   : Matroska
Format version                           : Version 4 / Version 2
File size                                : 2.79 GiB
Duration                                 : 1h 29mn
Overall bit rate                         : 4 450 Kbps
Encoded date                             : UTC 2018-12-28 14:22:15
Writing application                      : mkvmerge v9.2.0 ('Photograph') 64bit
Writing library                          : libebml v1.3.3 + libmatroska v1.4.4
DURATION                                 : 01:29:52.342000000
NUMBER_OF_FRAMES                         : 505532
NUMBER_OF_BYTES                          : 517664768
_STATISTICS_WRITING_APP                  : mkvmerge v9.2.0 ('Photograph') 64bit
_STATISTICS_WRITING_DATE_UTC             : 2018-12-28 14:22:15
_STATISTICS_TAGS                         : BPS DURATION NUMBER_OF_FRAMES NUMBER_OF_BYTES

Video
ID                                       : 1
Format                                   : HEVC
Format/Info                              : High Efficiency Video Coding
Format profile                           : Main@L4.0
Codec ID                                 : V_MPEGH/ISO/HEVC
Duration                                 : 1h 29mn
Bit rate                                 : 3 594 Kbps
Width                                    : 1 920 pixels
Height                                   : 1 080 pixels
Display aspect ratio                     : 16:9
Frame rate mode                          : Constant
Frame rate                               : 25.000 fps
Color space                              : YUV
Chroma subsampling                       : 4:2:0
Bit depth                                : 8 bits
Bits/(Pixel*Frame)                       : 0.069
Stream size                              : 2.26 GiB (81%)
Writing library                          : x265 2.5+2-18fa144d453e:[Windows][GCC 7.1.0][64 bit] 8bit+10bit+12bit
Encoding settings                        : cpuid=1050111 / frame-threads=5 / numa-pools=16,16 / wpp / no-pmode / no-pme / no-psnr / no-ssim / log-level=2 / input-csp=1 / input-res=1920x1080 / interlace=0 / total-frames=134834 / level-idc=0 / high-tier=1 / uhd-bd=0 / ref=4 / no-allow-non-conformance / no-repeat-headers / annexb / no-aud / no-hrd / info / hash=0 / no-temporal-layers / open-gop / min-keyint=25 / keyint=250 / bframes=4 / b-adapt=2 / b-pyramid / bframe-bias=0 / rc-lookahead=25 / lookahead-slices=4 / scenecut=40 / no-intra-refresh / ctu=64 / min-cu-size=8 / rect / no-amp / max-tu-size=32 / tu-inter-depth=1 / tu-intra-depth=1 / limit-tu=0 / rdoq-level=2 / dynamic-rd=0.00 / no-ssim-rd / signhide / no-tskip / nr-intra=0 / nr-inter=0 / no-constrained-intra / strong-intra-smoothing / max-merge=3 / limit-refs=3 / limit-modes / me=3 / subme=3 / merange=57 / temporal-mvp / weightp / no-weightb / no-analyze-src-pics / deblock=0:0 / sao / no-sao-non-deblock / rd=4 / no-early-skip / rskip / no-fast-intra / no-tskip-fast / no-cu-lossless / no-b-intra / rdpenalty=0 / psy-rd=2.00 / psy-rdoq=1.00 / no-rd-refine / analysis-reuse-mode=0 / no-lossless / cbqpoffs=0 / crqpoffs=0 / rc=crf / crf=20.0 / qcomp=0.60 / qpstep=4 / stats-write=0 / stats-read=0 / ipratio=1.40 / pbratio=1.30 / aq-mode=1 / aq-strength=1.00 / cutree / zone-count=0 / no-strict-cbr / qg-size=32 / no-rc-grain / qpmax=69 / qpmin=0 / no-const-vbv / sar=1 / overscan=0 / videoformat=5 / range=0 / colorprim=2 / transfer=2 / colormatrix=2 / chromaloc=0 / display-window=0 / max-cll=0,0 / min-luma=0 / max-luma=255 / log2-max-poc-lsb=8 / vui-timing-info / vui-hrd-info / slices=1 / opt-qp-pps / opt-ref-list-length-pps / no-multi-pass-opt-rps / scenecut-bias=0.05 / no-opt-cu-delta-qp / no-aq-motion / no-hdr / no-hdr-opt / no-dhdr10-opt / analysis-reuse-level=5 / scale-factor=0 / refine-intra=0 / refine-inter=0 / refine-mv=0 / no-limit-sao / ctu-info=0
Language                                 : German
Default                                  : Yes
Forced                                   : No

Audio
ID                                       : 2
Format                                   : DTS
Format/Info                              : Digital Theater Systems
Mode                                     : 16
Format settings, Endianness              : Big
Codec ID                                 : A_DTS
Duration                                 : 1h 29mn
Bit rate mode                            : Constant
Bit rate                                 : 768 Kbps
Channel(s)                               : 6 channels
Channel positions                        : Front: L C R, Side: L R, LFE
Sampling rate                            : 48.0 KHz
Bit depth                                : 24 bits
Compression mode                         : Lossy
Stream size                              : 494 MiB (17%)
Language                                 : German
Default                                  : Yes
Forced                                   : No


Download:
Share Online Share OnlineShare OnlineShare Online
 

Kommentare