HD-AREA wünscht Euch eine besinnliche Weihnachtszeit ;)

DNS SERVER AENDERNum der staatlichen Zensur zu umgehen. Sollten wir von eurem Provider geseprrt werden, nutzt den TOR BROWSER oder ändert euren DNS SERVER.

Filmwünsche können bei uns im Forum abgegeben werden

Wir Speichern Nicht




 
 
 
Top Releases
Bird.Box.Schliesse.deine.Aug...
Being.Mario.Goetze.2018.GERM...
Being.Mario.Goetze.2018.GERM...
Liebe.Bringt.Alles.Ins.Rolle...
Halloween.2018.German.DL.AC3...
Mogli.Legende.des.Dschungels...
Liebe.Bringt.Alles.Ins.Rolle...
Wer.war.Hitler.2017.German.A...
Liebe.Bringt.Alles.Ins.Rolle...
Liebe.Bringt.Alles.Ins.Rolle...

Cinedubs
Eho.Echo.German.720p.WEBRip....
Eho.Echo.German.1080p.WEBRip...
Bad.Times.at.the.El.Royale.2...
Bad.Spies.2018.German.DL.AC3...
Aquaman.2018.GERMAN.AC3.MD.7...
Bad.Spies.German.DL.AC3.Dubb...
Bad.Spies.German.DL.AC3.Dubb...
Bad.Times.at.the.El.Royale.G...
Bad.Times.at.the.El.Royale.G...
The.Guilty.German.DL.AC3.Dub...

Neuerscheinungen 2017-18
Predator.Upgrade.2018.German...
The.Sun.at.Midnight.2016.Ger...
The.Bet.2006.German.DL.1080p...
The.Bet.2006.German.DL.1080p...
The.Dragon.Unleashed.2019.Ge...
Smallfoot.Ein.eisigartiges.A...
Bob.Roberts.1992.German.1080...
Deutschland.bleiche.Mutter.1...
Predator.Upgrade.2018.MULTi....
Tales.of.Poe.2014.MERRY.XMAS...

XXX
FallInLovia.18.12.13.Seeing....
DayWithAPornstar.18.12.17.Ka...
DadCrush.18.12.16.Serena.San...
DeepThroatSirens.18.12.10.Op...
FiLFExtra.E16.Skin.Diamond.B...
FallInLovia.18.12.15.Baby.It...
FiLFExtra.E20.Coco.Valentina...
DebtDandy.18.12.14.E274.XXX....
FatManFuck.18.12.16.Stacey.L...
DigitalDesire.18.12.10.Megan...
CzechEscortGirls.18.12.17.Iz...
Drilled.18.12.17.Joseline.Ke...
DorcelClub.18.12.17.Clea.Gau...
ATKGirlfriends.18.12.17.Lily...
ATKGirlfriends.18.12.17.Broo...
CzechCasting.18.12.17.Sarka....
EuroGirlsOnGirls.18.12.17.Mi...
DateSlam.18.12.17.Jureka.Hor...
FiLFExtra.E18.Eunique.A.Euni...
FakeTaxi.18.12.16.Princess.P...

3D
Limbradur.und.die.Magie.der....
Kaluoka.Hina.Das.Zauberriff....
Limbradur.und.die.Magie.der....
Smallfoot.3D.2018.COMPLETE.B...
Smallfoot.Ein.eisigartiges.A...
Skyscraper.3D.2018.German.DL...
Meg.3D.2018.MULTi.COMPLETE.B...
Meg.3D.2018.German.DL.1080p....
Gans.im.Glueck.3D.2018.MULTi...
The.Art.of.Flight.3D.2011.Ge...
The.End.Of.The.World.3D.2010...
The.First.Avenger.Civil.War....
Die.Unglaublichen.2.2018.3D....
Skyscraper.3D.2018.MULTi.COM...
Ant-Man.And.The.Wasp.3D.2018...

Old_Stuff
Akte.X.S05.German.DTS.DL.108...
Akte.X.S04.German.DTS.DL.108...
Akte.X.S03.German.DTS.DL.108...
Dunkirk.1958.COMPLETE.BLURAY...
Das.Wunder.von.Manhattan.199...
The.Amazing.Spiderman.2.Rise...
Rise.of.the.Predator.2014.Ge...
Detective.Dee.und.das.Geheim...
Detective.Dee.Und.Der.Fluch....
Ghost.Rider.Spirit.of.Vengea...
Species.IV.Das.Erwachen.2007...
Species.IV.Das.Erwachen.2007...
Hotel.Transsilvanien.2012.Ge...
The.Dead.2010.German.DL.1080...
The.Dead.2.India.2013.German...

Filme
Alarmstufe.Rot.Under.Siege.-...
Last.Action.Hero.1993.German...
Der.Augenzeuge.1981.German.D...
The.Bet.2006.German.720p.Blu...
Die.Winzlinge.Operation.Zuck...
Weisse.Margeriten.1956.Germa...
Die.Klapperschlange.1981.Ger...
Y.Tu.Mama.Tambien.Lust.for.L...
Vorwiegend.heiter.1955.Germa...
Weissensee.S04D01.GERMAN.COM...
You.Du.Wirst.Mich.Lieben.S01...
You.Du.Wirst.Mich.Lieben.S01...
Quantico.S03.GERMAN.DL.DUBBE...
Quantico.S03.GERMAN.DUBBED.7...
Once.Upon.a.Time.S07.German....
Once.Upon.a.Time.S07.German....
American.Horror.Story.S08.GE...
American.Horror.Story.S08.GE...
Berlin.Station.S03.GERMAN.DL...
Berlin.Station.S03.GERMAN.72...
Ancient.Aliens.Unerklaerlich...
Romance.and.Cigarettes.2005....
Ancient.Aliens.Unerklaerlich...
From.Paris.with.Love.2010.Ge...

 
 
Bird.Box.Schliesse.deine.Augen.2018.German.AC3.DL.1080p.WEB-DL.x265-FuN

Jahr: 2018
Genre: Horror, Sci-Fi
Sprache: Deutsch AC3 | Englisch AC3
Laufzeit: 2h 4mn
Bitrate: 2 729 Kbps
Format: MKV
Größe: 2.37 GiB
Release:

Beschreibung:

Ein mysteriöser Schrecken hat die Welt heimgesucht. Es handelt sich dabei um eine Art Monster, das seine Opfer dazu bringt, sich selbst umzubringen – einzig und allein indem man es ansieht. In diesem Moment wird man nämlich mit seinen schlimmsten Ängsten konfrontiert. Um sich und ihre zwei Kinder vor diesem grausamen Schicksal zu bewahren, muss sich Malorie (Sandra Bullock) mit ihnen in dieser in Angst und Schrecken versetzten Welt durchkämpfen. Und zwar mit verbundenen Augen, um dem unheimlichen Wesen auch ja keine Angriffsfläche zu bieten. Als dann plötzlich das Telefon klingelt und ein unbekannter Anrufer auf einen sicheren Ort verweist, der nur ein paar Meilen den naheliegenden Fluss hinunter liegen soll, besteigt Malorie mit ihren Kindern kurzerhand ein kleines Boot und legt ab, natürlich noch immer ohne Augenlicht.




File size                                : 2.37 GiB
Duration                                 : 2h 4mn
Overall bit rate                         : 2 729 Kbps
Encoded date                             : UTC 2018-12-22 02:06:46
Writing application                      : HandBrake 20181104205902-46598fd-master 2018110501
Writing library                          : Lavf58.12.100

Video
ID                                       : 1
Format                                   : HEVC
Format/Info                              : High Efficiency Video Coding
Format profile                           : Main@L4.0
Codec ID                                 : V_MPEGH/ISO/HEVC
Duration                                 : 2h 4mn
Bit rate                                 : 1 906 Kbps
Width                                    : 1 920 pixels
Height                                   : 800 pixels
Display aspect ratio                     : 2.40:1
Frame rate mode                          : Constant
Frame rate                               : 24.000 fps
Color space                              : YUV
Chroma subsampling                       : 4:2:0
Bit depth                                : 8 bits
Bits/(Pixel*Frame)                       : 0.052
Stream size                              : 1.66 GiB (70%)
Writing library                          : x265 2.8:[Windows][GCC 7.1.0][64 bit] 8bit+10bit+12bit
Encoding settings                        : cpuid=1111039 / frame-threads=4 / numa-pools=8,8 / wpp / no-pmode / no-pme / no-psnr / no-ssim / log-level=2 / input-csp=1 / input-res=1920x800 / interlace=0 / total-frames=0 / level-idc=0 / high-tier=1 / uhd-bd=0 / ref=3 / no-allow-non-conformance / no-repeat-headers / annexb / no-aud / no-hrd / info / hash=0 / no-temporal-layers / open-gop / min-keyint=24 / keyint=240 / gop-lookahead=0 / bframes=4 / b-adapt=2 / b-pyramid / bframe-bias=0 / rc-lookahead=20 / lookahead-slices=5 / scenecut=40 / radl=0 / no-intra-refresh / ctu=64 / min-cu-size=8 / no-rect / no-amp / max-tu-size=32 / tu-inter-depth=1 / tu-intra-depth=1 / limit-tu=0 / rdoq-level=0 / dynamic-rd=0.00 / no-ssim-rd / signhide / no-tskip / nr-intra=0 / nr-inter=0 / no-constrained-intra / no-strong-intra-smoothing / max-merge=2 / limit-refs=3 / no-limit-modes / me=1 / subme=2 / merange=57 / temporal-mvp / weightp / no-weightb / no-analyze-src-pics / deblock=0:0 / no-sao / no-sao-non-deblock / rd=3 / no-early-skip / rskip / no-fast-intra / no-tskip-fast / no-cu-lossless / no-b-intra / no-splitrd-skip / rdpenalty=0 / psy-rd=2.00 / psy-rdoq=0.00 / no-rd-refine / no-lossless / cbqpoffs=0 / crqpoffs=0 / rc=crf / crf=20.0 / qcomp=0.60 / qpstep=4 / stats-write=0 / stats-read=0 / ipratio=1.40 / pbratio=1.30 / aq-mode=1 / aq-strength=1.00 / cutree / zone-count=0 / no-strict-cbr / qg-size=32 / no-rc-grain / qpmax=69 / qpmin=0 / no-const-vbv / sar=1 / overscan=0 / videoformat=5 / range=0 / colorprim=1 / transfer=1 / colormatrix=1 / chromaloc=0 / display-window=0 / max-cll=0,0 / min-luma=0 / max-luma=255 / log2-max-poc-lsb=8 / vui-timing-info / vui-hrd-info / slices=1 / no-opt-qp-pps / no-opt-ref-list-length-pps / no-multi-pass-opt-rps / scenecut-bias=0.05 / no-opt-cu-delta-qp / no-aq-motion / no-hdr / no-hdr-opt / no-dhdr10-opt / no-idr-recovery-sei / analysis-reuse-level=5 / scale-factor=0 / refine-intra=0 / refine-inter=0 / refine-mv=0 / no-limit-sao / ctu-info=0 / no-lowpass-dct / refine-mv-type=0 / copy-pic=1 / max-ausize-factor=1.0 / no-dynamic-refine / no-single-sei
Default                                  : Yes
Forced                                   : No
DURATION                                 : 02:04:22.422000000

Audio #1
ID                                       : 2
Format                                   : AC-3
Format/Info                              : Audio Coding 3
Mode extension                           : CM (complete main)
Format settings, Endianness              : Big
Codec ID                                 : A_AC3
Duration                                 : 2h 4mn
Bit rate mode                            : Constant
Bit rate                                 : 384 Kbps
Channel(s)                               : 6 channels
Channel positions                        : Front: L C R, Side: L R, LFE
Sampling rate                            : 48.0 KHz
Bit depth                                : 16 bits
Compression mode                         : Lossy
Delay relative to video                  : -5ms
Stream size                              : 342 MiB (14%)
Title                                    : Surround
Language                                 : German
Default                                  : Yes
Forced                                   : No
DURATION                                 : 02:04:22.688000000

Audio #2
ID                                       : 3
Format                                   : AC-3
Format/Info                              : Audio Coding 3
Mode extension                           : CM (complete main)
Format settings, Endianness              : Big
Codec ID                                 : A_AC3
Duration                                 : 2h 4mn
Bit rate mode                            : Constant
Bit rate                                 : 384 Kbps
Channel(s)                               : 6 channels
Channel positions                        : Front: L C R, Side: L R, LFE
Sampling rate                            : 48.0 KHz
Bit depth                                : 16 bits
Compression mode                         : Lossy
Delay relative to video                  : -5ms
Stream size                              : 342 MiB (14%)
Title                                    : Surround
Language                                 : English
Default                                  : No
Forced                                   : No
DURATION                                 : 02:04:22.432000000



Download:
Share Online Share OnlineShare OnlineShare Online
 

Kommentare