HD-AREA wünscht Euch eine besinnliche Weihnachtszeit ;)

DNS SERVER AENDERNum der staatlichen Zensur zu umgehen. Sollten wir von eurem Provider geseprrt werden, nutzt den TOR BROWSER oder ändert euren DNS SERVER.

Filmwünsche können bei uns im Forum abgegeben werden

Wir Speichern Nicht




 
 
 
Top Releases
Being.Mario.Goetze.2018.GERM...
Being.Mario.Goetze.2018.GERM...
Liebe.Bringt.Alles.Ins.Rolle...
Halloween.2018.German.DL.AC3...
Mogli.Legende.des.Dschungels...
Liebe.Bringt.Alles.Ins.Rolle...
Wer.war.Hitler.2017.German.A...
Liebe.Bringt.Alles.Ins.Rolle...
Liebe.Bringt.Alles.Ins.Rolle...
The.Happy.Prince.2018.German...

Cinedubs
Bad.Times.at.the.El.Royale.2...
Bad.Spies.2018.German.DL.AC3...
Aquaman.2018.GERMAN.AC3.MD.7...
Bad.Spies.German.DL.AC3.Dubb...
Bad.Spies.German.DL.AC3.Dubb...
Bad.Times.at.the.El.Royale.G...
Bad.Times.at.the.El.Royale.G...
The.Guilty.German.DL.AC3.Dub...
The.Guilty.German.DL.AC3.Dub...
Johnny.English.Man.lebt.nur....

Neuerscheinungen 2017-18
Smallfoot.Ein.eisigartiges.A...
The.Sun.at.Midnight.2016.Ger...
Bob.Roberts.1992.German.1080...
Deutschland.bleiche.Mutter.1...
Predator.Upgrade.2018.MULTi....
Tales.of.Poe.2014.MERRY.XMAS...
The.Dragon.Unleashed.2018.ME...
he.Dragon.Unleashed.2019.GER...
The.Dragon.Unleashed.2019.GE...
The.Dragon.Unleashed.2019.GE...

XXX
BlackedRaw.18.12.18.Abella.D...
BigGulpGirls.18.12.14.Christ...
AdultTime.18.12.18.Ashley.Ad...
BlacksOnBlondes.18.12.18.Can...
BigWetButts.18.12.18.Kat.Dio...
ATKGirlfriends.18.12.18.Lily...
Cum4K.18.12.18.Kendra.Spade....
ConorCoxxx.18.12.14.Lady.Von...
BigTitsAtWork.18.12.18.Abiga...
ATKGirlfriends.18.12.18.Alex...
Blacked.18.12.16.Tori.Black....
ClubSeventeen.18.12.16.Lilli...
BlowBangGirls.18.12.15.Afton...
AbbyWinters.18.12.15.Alessia...
Creampie-Angels.18.12.16.Eli...
CherryPimps.18.12.17.Ana.Fox...
BrothaLovers.18.12.14.Emily....
CreampieInAsia.18.12.07.Joy....
CreampieInAsia.18.12.14.Joy....
ClubSeventeen.18.12.17.Eliza...

3D
Limbradur.und.die.Magie.der....
Kaluoka.Hina.Das.Zauberriff....
Limbradur.und.die.Magie.der....
Smallfoot.3D.2018.COMPLETE.B...
Smallfoot.Ein.eisigartiges.A...
Skyscraper.3D.2018.German.DL...
Meg.3D.2018.MULTi.COMPLETE.B...
Meg.3D.2018.German.DL.1080p....
Gans.im.Glueck.3D.2018.MULTi...
The.Art.of.Flight.3D.2011.Ge...
The.End.Of.The.World.3D.2010...
The.First.Avenger.Civil.War....
Die.Unglaublichen.2.2018.3D....
Skyscraper.3D.2018.MULTi.COM...
Ant-Man.And.The.Wasp.3D.2018...

Old_Stuff
Akte.X.S05.German.DTS.DL.108...
Akte.X.S04.German.DTS.DL.108...
Akte.X.S03.German.DTS.DL.108...
Dunkirk.1958.COMPLETE.BLURAY...
Das.Wunder.von.Manhattan.199...
The.Amazing.Spiderman.2.Rise...
Rise.of.the.Predator.2014.Ge...
Detective.Dee.und.das.Geheim...
Detective.Dee.Und.Der.Fluch....
Ghost.Rider.Spirit.of.Vengea...
Species.IV.Das.Erwachen.2007...
Species.IV.Das.Erwachen.2007...
Hotel.Transsilvanien.2012.Ge...
The.Dead.2010.German.DL.1080...
The.Dead.2.India.2013.German...

Filme
Stirb.langsam.4.0.2007.Germa...
Der.Exorzist.1973.German.40t...
Romeo.und.Julia.1996.German....
Blind.Horizon.-.Der.Feind.in...
Bird.Box.2018.German.DL.2160...
Verliebt.und.ausgeflippt.201...
Frankenstein.und.die.Ungeheu...
Frankenstein.und.die.Ungeheu...
BlacKkKlansman.2018.German.D...
Rolls.Royce.Baby.1975.German...
Fellinis.Roma.1972.German.72...
Fellinis.Roma.1972.German.10...
A.Charlie.Brown.Christmas.19...
Predator.Upgrade.2018.German...
Wenn.suess.das.Mondlicht.auf...
Wenn.suess.das.Mondlicht.auf...
Heiter.bis.wolkig.2012.Germa...
Der.Prinz.und.ich.2004.Germa...
Der.Prinz.und.ich.2004.Germa...
The.Bet.2006.DUAL.COMPLETE.B...
Der.Teufelsschrei.Evilspeak....
Ein.irres.Feeling.1984.Germa...
Ein.irres.Feeling.1984.Germa...
Mutants.Du.wirst.sie.toeten....

 
 
Romeo.und.Julia.1996.German.DL.DTS.1080p.BluRay.x264-MOViESTARS

Jahr: 1996
Genre: Drama
Sprache: Deutsch DTS | Englisch DTS
Laufzeit: 2h 0mn
Bitrate: 16.7 Mbps
Format: MKV
Größe: 14.0 GiB
Release:

Beschreibung:

Verona Beach wird von zwei verfeindeten Familien beherrscht: den Capulets und den Montagues. Bei einem Maskenball verlieben sich deren jüngste Sprößlinge – Romeo und Julia – unsterblich ineinander. Obwohl Julia schon dem Geschäftsmann Dave Paris versprochen ist, heiratet sie Romeo Montague im geheimen. Als der junge Ehemann kurz darauf bei einer gezielten Provokation Tybalt Capulet tötet, muß er aus Verona Beach fliehen. Nur der geniale Plan des befreundeten Pater Laurence kann die beiden Liebenden wieder zusammenführen.




Format                                   : Matroska
Format version                           : Version 2
File size                                : 14.0 GiB
Duration                                 : 2h 0mn
Overall bit rate                         : 16.7 Mbps
Encoded date                             : UTC 2010-10-05 16:02:32
Writing application                      : mkvmerge v4.3.0 ('Escape from the Island') gebaut am Sep  5 2010 10:30:51
Writing library                          : libebml v1.0.0 + libmatroska v1.0.0

Video
ID                                       : 1
Format                                   : AVC
Format/Info                              : Advanced Video Codec
Format profile                           : High@L4.1
Format settings, CABAC                   : Yes
Format settings, ReFrames                : 5 frames
Muxing mode                              : Header stripping
Codec ID                                 : V_MPEG4/ISO/AVC
Duration                                 : 2h 0mn
Bit rate                                 : 14.0 Mbps
Width                                    : 1 920 pixels
Height                                   : 800 pixels
Display aspect ratio                     : 2.40:1
Frame rate mode                          : Constant
Frame rate                               : 23.976 fps
Color space                              : YUV
Chroma subsampling                       : 4:2:0
Bit depth                                : 8 bits
Scan type                                : Progressive
Bits/(Pixel*Frame)                       : 0.381
Stream size                              : 11.8 GiB (84%)
Title                                    : Romeo + Julia - MOViESTARS
Writing library                          : x264 core 104 r1713 c276662
Encoding settings                        : cabac=1 / ref=5 / deblock=1:-3:-3 / analyse=0x3:0x133 / me=umh / subme=7 / psy=1 / psy_rd=1.00:0.20 / mixed_ref=1 / me_range=16 / chroma_me=1 / trellis=1 / 8x8dct=1 / cqm=0 / deadzone=21,11 / fast_pskip=0 / chroma_qp_offset=-3 / threads=12 / sliced_threads=0 / nr=0 / decimate=1 / interlaced=0 / constrained_intra=0 / bframes=3 / b_pyramid=2 / b_adapt=2 / b_bias=0 / direct=1 / weightb=1 / open_gop=0 / weightp=2 / keyint=250 / keyint_min=23 / scenecut=40 / intra_refresh=0 / rc_lookahead=40 / rc=crf / mbtree=1 / crf=20.0 / qcomp=0.60 / qpmin=10 / qpmax=51 / qpstep=4 / ip_ratio=1.40 / aq=1:1.00
Default                                  : Yes
Forced                                   : No

Audio #1
ID                                       : 2
Format                                   : DTS
Format/Info                              : Digital Theater Systems
Mode                                     : 16
Format settings, Endianness              : Big
Muxing mode                              : Header stripping
Codec ID                                 : A_DTS
Duration                                 : 2h 0mn
Bit rate mode                            : Constant
Bit rate                                 : 768 Kbps
Channel(s)                               : 6 channels
Channel positions                        : Front: L C R, Side: L R, LFE
Sampling rate                            : 48.0 KHz
Bit depth                                : 24 bits
Compression mode                         : Lossy
Stream size                              : 660 MiB (5%)
Title                                    : DTS
Language                                 : German
Default                                  : Yes
Forced                                   : No

Audio #2
ID                                       : 3
Format                                   : DTS
Format/Info                              : Digital Theater Systems
Mode                                     : 16
Format settings, Endianness              : Big
Muxing mode                              : Header stripping
Codec ID                                 : A_DTS
Duration                                 : 2h 0mn
Bit rate mode                            : Constant
Bit rate                                 : 1 509 Kbps
Channel(s)                               : 6 channels
Channel positions                        : Front: L C R, Side: L R, LFE
Sampling rate                            : 48.0 KHz
Bit depth                                : 24 bits
Compression mode                         : Lossy
Stream size                              : 1.27 GiB (9%)
Title                                    : DTS
Language                                 : English
Default                                  : No
Forced                                   : No



Download:
Share Online Share OnlineShare OnlineShare Online
 

Kommentare