HD-AREA wünscht Euch eine besinnliche Weihnachtszeit ;)

DNS SERVER AENDERNum der staatlichen Zensur zu umgehen. Sollten wir von eurem Provider geseprrt werden, nutzt den TOR BROWSER oder ändert euren DNS SERVER.

Filmwünsche können bei uns im Forum abgegeben werden

Wir Speichern Nicht




 
 
 
Top Releases
Being.Mario.Goetze.2018.GERM...
Being.Mario.Goetze.2018.GERM...
Liebe.Bringt.Alles.Ins.Rolle...
Halloween.2018.German.DL.AC3...
Mogli.Legende.des.Dschungels...
Liebe.Bringt.Alles.Ins.Rolle...
Wer.war.Hitler.2017.German.A...
Liebe.Bringt.Alles.Ins.Rolle...
Liebe.Bringt.Alles.Ins.Rolle...
The.Happy.Prince.2018.German...

Cinedubs
Bad.Times.at.the.El.Royale.2...
Bad.Spies.2018.German.DL.AC3...
Aquaman.2018.GERMAN.AC3.MD.7...
Bad.Spies.German.DL.AC3.Dubb...
Bad.Spies.German.DL.AC3.Dubb...
Bad.Times.at.the.El.Royale.G...
Bad.Times.at.the.El.Royale.G...
The.Guilty.German.DL.AC3.Dub...
The.Guilty.German.DL.AC3.Dub...
Johnny.English.Man.lebt.nur....

Neuerscheinungen 2017-18
Bob.Roberts.1992.German.1080...
Deutschland.bleiche.Mutter.1...
Predator.Upgrade.2018.MULTi....
Tales.of.Poe.2014.MERRY.XMAS...
The.Dragon.Unleashed.2018.ME...
he.Dragon.Unleashed.2019.GER...
The.Dragon.Unleashed.2019.GE...
The.Dragon.Unleashed.2019.GE...
Tales.of.Poe.2014.GERMAN.DL....
Tales.of.Poe.2014.GERMAN.MER...

XXX
ConorCoxxx.18.12.14.Lady.Von...
BigTitsAtWork.18.12.18.Abiga...
ATKGirlfriends.18.12.18.Alex...
Blacked.18.12.16.Tori.Black....
ClubSeventeen.18.12.16.Lilli...
BlowBangGirls.18.12.15.Afton...
AbbyWinters.18.12.15.Alessia...
Creampie-Angels.18.12.16.Eli...
CherryPimps.18.12.17.Ana.Fox...
BrothaLovers.18.12.14.Emily....
CreampieInAsia.18.12.07.Joy....
CreampieInAsia.18.12.14.Joy....
ClubSeventeen.18.12.17.Eliza...
BitchConfessions.18.12.16.Di...
Cosmid.18.12.17.Nika.Norse.K...
ATKHairy.18.12.17.Victoria.G...
Bang.RealTeens.18.12.17.Scar...
ClubSeventeen.18.12.18.Kelsi...
Cosmid.18.12.16.Ruby.Stone.T...
BurningAngel.18.12.18.Barbie...

3D
Limbradur.und.die.Magie.der....
Kaluoka.Hina.Das.Zauberriff....
Limbradur.und.die.Magie.der....
Smallfoot.3D.2018.COMPLETE.B...
Smallfoot.Ein.eisigartiges.A...
Skyscraper.3D.2018.German.DL...
Meg.3D.2018.MULTi.COMPLETE.B...
Meg.3D.2018.German.DL.1080p....
Gans.im.Glueck.3D.2018.MULTi...
The.Art.of.Flight.3D.2011.Ge...
The.End.Of.The.World.3D.2010...
The.First.Avenger.Civil.War....
Die.Unglaublichen.2.2018.3D....
Skyscraper.3D.2018.MULTi.COM...
Ant-Man.And.The.Wasp.3D.2018...

Old_Stuff
Akte.X.S05.German.DTS.DL.108...
Akte.X.S04.German.DTS.DL.108...
Akte.X.S03.German.DTS.DL.108...
Dunkirk.1958.COMPLETE.BLURAY...
Das.Wunder.von.Manhattan.199...
The.Amazing.Spiderman.2.Rise...
Rise.of.the.Predator.2014.Ge...
Detective.Dee.und.das.Geheim...
Detective.Dee.Und.Der.Fluch....
Ghost.Rider.Spirit.of.Vengea...
Species.IV.Das.Erwachen.2007...
Species.IV.Das.Erwachen.2007...
Hotel.Transsilvanien.2012.Ge...
The.Dead.2010.German.DL.1080...
The.Dead.2.India.2013.German...

Filme
Heiter.bis.wolkig.2012.Germa...
Der.Prinz.und.ich.2004.Germa...
Der.Prinz.und.ich.2004.Germa...
The.Bet.2006.DUAL.COMPLETE.B...
Der.Teufelsschrei.Evilspeak....
Ein.irres.Feeling.1984.Germa...
Ein.irres.Feeling.1984.Germa...
Mutants.Du.wirst.sie.toeten....
Mutants.Du.wirst.sie.toeten....
Nur.noch.72.Stunden.1968.Ger...
Nur.noch.72.Stunden.1968.Ger...
Please.Stand.By.2017.German....
Please.Stand.By.2017.German....
So.High.2001.German.DL.AC3D....
So.High.2001.German.DL.AC3D....
Die.unglaubliche.Reise.in.ei...
Die.unglaubliche.Reise.in.ei...
Tomorrowland.2015.German.AC3...
King.Kong.1976.German.AC3.DL...
Firewall.2006.OPEN.MATTE.Ger...
Die.Peanuts.Der.grosse.Kuerb...
Die.Peanuts.Der.grosse.Kuerb...
Bird.Box.2018.German.DL.1080...
Bird.Box.2018.German.DL.720p...

 
 
Heiter.bis.wolkig.2012.German.AC3.1080p.BluRay.x265-FuN

Jahr: 2012
Genre: Komödie
Sprache: Deutsch AC3
Laufzeit: 1h 39mn
Bitrate: 3 252 Kbps
Format: MKV
Größe: 2.26 GiB
Release:

Beschreibung:

Tim und Can sind zwei echte Draufgänger. Für das Abschleppen von Mädels haben sie eine besonders skrupellose Masche entwickelt, um sich gegenseitig Erfolg bei Frauen zu ermöglichen: Einer erzählt einem Mädchen, dass der andere unheilbar an Krebs erkrankt ist und sich nichts sehnlicher wünscht, als noch einmal mit einer Frau ins Bett zu steigen. Die Masche funktioniert prächtig, bis sich Tim auf diese Art Marie kennenlernt und sich prompt in sie verliebt. Als er erfährt, dass Maries Schwester Edda tatsächlich an Krebs erkrankt ist, ist er gezwungen die Scharade aufrecht zu erhalten und gerät in allerlei verzwickte Situationen. Es dauert nicht lange, bis Edda den Simulanten durchschaut, doch anstatt ihn auffliegen zu lassen, bietet sie ihm einen ungewöhnlichen Deal an...




File size                                : 2.26 GiB
Duration                                 : 1h 39mn
Overall bit rate                         : 3 252 Kbps
Encoded date                             : UTC 2018-04-12T15:09:22Z
Writing application                      : HandBrake 1.0.7 2017040900
Writing library                          : Lavf57.7.2

Video
ID                                       : 1
Format                                   : HEVC
Format/Info                              : High Efficiency Video Coding
Format profile                           : Main@L4.0
Codec ID                                 : V_MPEGH/ISO/HEVC
Duration                                 : 1h 39mn
Bit rate                                 : 2 804 Kbps
Width                                    : 1 920 pixels
Height                                   : 816 pixels
Display aspect ratio                     : 2.35:1
Frame rate mode                          : Constant
Frame rate                               : 24.000 fps
Color space                              : YUV
Chroma subsampling                       : 4:2:0
Bit depth                                : 8 bits
Bits/(Pixel*Frame)                       : 0.075
Stream size                              : 1.95 GiB (86%)
Writing library                          : x265 2.1:[Windows][GCC 5.3.1][64 bit] 8bit
Encoding settings                        : wpp / ctu=64 / min-cu-size=8 / max-tu-size=32 / tu-intra-depth=1 / tu-inter-depth=1 / me=1 / subme=2 / merange=57 / no-rect / no-amp / max-merge=2 / temporal-mvp / no-early-skip / rskip / rdpenalty=0 / no-tskip / no-tskip-fast / strong-intra-smoothing / no-lossless / no-cu-lossless / no-constrained-intra / fast-intra / open-gop / no-temporal-layers / interlace=0 / keyint=240 / min-keyint=24 / scenecut=40 / rc-lookahead=15 / lookahead-slices=5 / bframes=4 / bframe-bias=0 / b-adapt=0 / ref=3 / limit-refs=3 / no-limit-modes / weightp / no-weightb / aq-mode=1 / qg-size=32 / aq-strength=1.00 / cbqpoffs=0 / crqpoffs=0 / rd=2 / psy-rd=2.00 / rdoq-level=0 / psy-rdoq=0.00 / log2-max-poc-lsb=8 / no-rd-refine / signhide / deblock=0:0 / sao / no-sao-non-deblock / b-pyramid / cutree / no-intra-refresh / rc=crf / crf=20.0 / qcomp=0.60 / qpmin=0 / qpmax=69 / qpstep=4 / ipratio=1.40 / pbratio=1.30
Default                                  : Yes
Forced                                   : No

Audio
ID                                       : 2
Format                                   : AC-3
Format/Info                              : Audio Coding 3
Mode extension                           : CM (complete main)
Format settings, Endianness              : Big
Codec ID                                 : A_AC3
Duration                                 : 1h 39mn
Bit rate mode                            : Constant
Bit rate                                 : 384 Kbps
Channel(s)                               : 6 channels
Channel positions                        : Front: L C R, Side: L R, LFE
Sampling rate                            : 48.0 KHz
Bit depth                                : 16 bits
Compression mode                         : Lossy
Delay relative to video                  : -5ms
Stream size                              : 273 MiB (12%)
Title                                    : Surround
Language                                 : German
Default                                  : Yes
Forced                                   : No



Download:
Share Online Share OnlineShare OnlineShare Online
 

Kommentare