HD-AREA wünscht Euch eine besinnliche Weihnachtszeit ;)

DNS SERVER AENDERNum der staatlichen Zensur zu umgehen. Sollten wir von eurem Provider geseprrt werden, nutzt den TOR BROWSER oder ändert euren DNS SERVER.

Filmwünsche können bei uns im Forum abgegeben werden

Wir Speichern Nicht




 
 
 
Top Releases
Being.Mario.Goetze.2018.GERM...
Being.Mario.Goetze.2018.GERM...
Liebe.Bringt.Alles.Ins.Rolle...
Halloween.2018.German.DL.AC3...
Mogli.Legende.des.Dschungels...
Liebe.Bringt.Alles.Ins.Rolle...
Wer.war.Hitler.2017.German.A...
Liebe.Bringt.Alles.Ins.Rolle...
Liebe.Bringt.Alles.Ins.Rolle...
The.Happy.Prince.2018.German...

Cinedubs
Bad.Times.at.the.El.Royale.2...
Bad.Spies.2018.German.DL.AC3...
Aquaman.2018.GERMAN.AC3.MD.7...
Bad.Spies.German.DL.AC3.Dubb...
Bad.Spies.German.DL.AC3.Dubb...
Bad.Times.at.the.El.Royale.G...
Bad.Times.at.the.El.Royale.G...
The.Guilty.German.DL.AC3.Dub...
The.Guilty.German.DL.AC3.Dub...
Johnny.English.Man.lebt.nur....

Neuerscheinungen 2017-18
Smallfoot.Ein.eisigartiges.A...
The.Sun.at.Midnight.2016.Ger...
Bob.Roberts.1992.German.1080...
Deutschland.bleiche.Mutter.1...
Predator.Upgrade.2018.MULTi....
Tales.of.Poe.2014.MERRY.XMAS...
The.Dragon.Unleashed.2018.ME...
he.Dragon.Unleashed.2019.GER...
The.Dragon.Unleashed.2019.GE...
The.Dragon.Unleashed.2019.GE...

XXX
BlackedRaw.18.12.18.Abella.D...
BigGulpGirls.18.12.14.Christ...
AdultTime.18.12.18.Ashley.Ad...
BlacksOnBlondes.18.12.18.Can...
BigWetButts.18.12.18.Kat.Dio...
ATKGirlfriends.18.12.18.Lily...
Cum4K.18.12.18.Kendra.Spade....
ConorCoxxx.18.12.14.Lady.Von...
BigTitsAtWork.18.12.18.Abiga...
ATKGirlfriends.18.12.18.Alex...
Blacked.18.12.16.Tori.Black....
ClubSeventeen.18.12.16.Lilli...
BlowBangGirls.18.12.15.Afton...
AbbyWinters.18.12.15.Alessia...
Creampie-Angels.18.12.16.Eli...
CherryPimps.18.12.17.Ana.Fox...
BrothaLovers.18.12.14.Emily....
CreampieInAsia.18.12.07.Joy....
CreampieInAsia.18.12.14.Joy....
ClubSeventeen.18.12.17.Eliza...

3D
Limbradur.und.die.Magie.der....
Kaluoka.Hina.Das.Zauberriff....
Limbradur.und.die.Magie.der....
Smallfoot.3D.2018.COMPLETE.B...
Smallfoot.Ein.eisigartiges.A...
Skyscraper.3D.2018.German.DL...
Meg.3D.2018.MULTi.COMPLETE.B...
Meg.3D.2018.German.DL.1080p....
Gans.im.Glueck.3D.2018.MULTi...
The.Art.of.Flight.3D.2011.Ge...
The.End.Of.The.World.3D.2010...
The.First.Avenger.Civil.War....
Die.Unglaublichen.2.2018.3D....
Skyscraper.3D.2018.MULTi.COM...
Ant-Man.And.The.Wasp.3D.2018...

Old_Stuff
Akte.X.S05.German.DTS.DL.108...
Akte.X.S04.German.DTS.DL.108...
Akte.X.S03.German.DTS.DL.108...
Dunkirk.1958.COMPLETE.BLURAY...
Das.Wunder.von.Manhattan.199...
The.Amazing.Spiderman.2.Rise...
Rise.of.the.Predator.2014.Ge...
Detective.Dee.und.das.Geheim...
Detective.Dee.Und.Der.Fluch....
Ghost.Rider.Spirit.of.Vengea...
Species.IV.Das.Erwachen.2007...
Species.IV.Das.Erwachen.2007...
Hotel.Transsilvanien.2012.Ge...
The.Dead.2010.German.DL.1080...
The.Dead.2.India.2013.German...

Filme
Stirb.langsam.4.0.2007.Germa...
Der.Exorzist.1973.German.40t...
Romeo.und.Julia.1996.German....
Blind.Horizon.-.Der.Feind.in...
Bird.Box.2018.German.DL.2160...
Verliebt.und.ausgeflippt.201...
Frankenstein.und.die.Ungeheu...
Frankenstein.und.die.Ungeheu...
BlacKkKlansman.2018.German.D...
Rolls.Royce.Baby.1975.German...
Fellinis.Roma.1972.German.72...
Fellinis.Roma.1972.German.10...
A.Charlie.Brown.Christmas.19...
Predator.Upgrade.2018.German...
Wenn.suess.das.Mondlicht.auf...
Wenn.suess.das.Mondlicht.auf...
Heiter.bis.wolkig.2012.Germa...
Der.Prinz.und.ich.2004.Germa...
Der.Prinz.und.ich.2004.Germa...
The.Bet.2006.DUAL.COMPLETE.B...
Der.Teufelsschrei.Evilspeak....
Ein.irres.Feeling.1984.Germa...
Ein.irres.Feeling.1984.Germa...
Mutants.Du.wirst.sie.toeten....

 
 
Frankenstein.und.die.Ungeheuer.aus.dem.Meer.1966.German.720p.BluRay.x264-iNKLUSiON

Jahr: 1966
Genre: Abenteuer, Action
Sprache: Deutsch DTS
Laufzeit: 1h 26mn
Bitrate: 5 414 Kbps
Format: MKV
Größe: 3.27 GiB
Release:

Beschreibung:

Auf der Suche nach seinem vermissten Bruder strandet ein junger Mann mit seinen Begleitern auf der Teufelsinsel. Hier ist die militärische Geheimorganisation ROTER BAMBUS aktiv. Zu allem Schrecken wird die Insel außerdem von dem monströsen Krebstier Ebirah bewacht, das jeden Eindringling angreift.
Als die Gestrandeten und ein Eingeborenenmädchen immer mehr durch die schiesswütigen Soldaten des ROTEN BAMBUS gefährdet werden, wecken sie das in einer Höhle schlafende Monster Godzilla. Godzilla schreitet zum Kampf der Giganten gegen Ebirah und den ROTEN BAMBUS. Die Insel versinkt im Chaos und nur die friedliche Riesenmotte Mothra könnte die Rettung sein.
Doch wird sie rechtzeitig erwachen, bevor die Insel zur Hölle wird?




File size                                : 3.27 GiB
Duration                                 : 1h 26mn
Overall bit rate                         : 5 414 Kbps
Encoded date                             : UTC 2018-12-16 07:38:23
Writing application                      : mkvmerge v24.0.0 ('Beyond The Pale') 32-bit
Writing library                          : libebml v1.3.6 + libmatroska v1.4.9
DURATION                                 : 00:04:46.999000000
NUMBER_OF_FRAMES                         : 24
NUMBER_OF_BYTES                          : 1043
_STATISTICS_WRITING_APP                  : mkvmerge v24.0.0 ('Beyond The Pale') 32-bit
_STATISTICS_WRITING_DATE_UTC             : 2018-12-16 07:38:23
_STATISTICS_TAGS                         : BPS DURATION NUMBER_OF_FRAMES NUMBER_OF_BYTES

Video
ID                                       : 1
Format                                   : AVC
Format/Info                              : Advanced Video Codec
Format profile                           : High@L4.1
Format settings, CABAC                   : Yes
Format settings, ReFrames                : 5 frames
Codec ID                                 : V_MPEG4/ISO/AVC
Duration                                 : 1h 26mn
Bit rate                                 : 3 902 Kbps
Width                                    : 1 280 pixels
Height                                   : 544 pixels
Display aspect ratio                     : 2.35:1
Frame rate mode                          : Constant
Frame rate                               : 24.000 fps
Color space                              : YUV
Chroma subsampling                       : 4:2:0
Bit depth                                : 8 bits
Scan type                                : Progressive
Bits/(Pixel*Frame)                       : 0.233
Stream size                              : 2.30 GiB (70%)
Writing library                          : x264 core 157 r2935 545de2f
Encoding settings                        : cabac=1 / ref=5 / deblock=1:-1:-1 / analyse=0x3:0x113 / me=umh / subme=7 / psy=1 / psy_rd=1.00:0.00 / mixed_ref=1 / me_range=16 / chroma_me=1 / trellis=1 / 8x8dct=1 / cqm=0 / deadzone=21,11 / fast_pskip=0 / chroma_qp_offset=-2 / threads=12 / lookahead_threads=2 / sliced_threads=0 / nr=0 / decimate=1 / interlaced=0 / bluray_compat=0 / constrained_intra=0 / bframes=3 / b_pyramid=2 / b_adapt=1 / b_bias=0 / direct=3 / weightb=1 / open_gop=0 / weightp=2 / keyint=250 / keyint_min=24 / scenecut=40 / intra_refresh=0 / rc_lookahead=40 / rc=2pass / mbtree=1 / bitrate=3902 / ratetol=1.0 / qcomp=0.60 / qpmin=0 / qpmax=69 / qpstep=4 / cplxblur=20.0 / qblur=0.5 / ip_ratio=1.40 / aq=1:1.00
Default                                  : Yes
Forced                                   : No

Audio
ID                                       : 2
Format                                   : DTS
Format/Info                              : Digital Theater Systems
Mode                                     : 16
Format settings, Endianness              : Big
Codec ID                                 : A_DTS
Duration                                 : 1h 26mn
Bit rate mode                            : Constant
Bit rate                                 : 1 509 Kbps
Channel(s)                               : 2 channels
Channel positions                        : Front: L R
Sampling rate                            : 48.0 KHz
Bit depth                                : 24 bits
Compression mode                         : Lossy
Stream size                              : 935 MiB (28%)
Language                                 : German
Default                                  : Yes
Forced                                   : No

Text
ID                                       : 3
Format                                   : UTF-8
Codec ID                                 : S_TEXT/UTF8
Codec ID/Info                            : UTF-8 Plain Text
Language                                 : German
Default                                  : Yes
Forced                                   : Yes



Download:
Share Online Share OnlineShare OnlineShare Online
 

Kommentare