HD-AREA wünscht Euch eine besinnliche Weihnachtszeit ;)

DNS SERVER AENDERNum der staatlichen Zensur zu umgehen. Sollten wir von eurem Provider geseprrt werden, nutzt den TOR BROWSER oder ändert euren DNS SERVER.

Filmwünsche können bei uns im Forum abgegeben werden

Wir Speichern Nicht




 
 
 
Top Releases
Being.Mario.Goetze.2018.GERM...
Being.Mario.Goetze.2018.GERM...
Liebe.Bringt.Alles.Ins.Rolle...
Halloween.2018.German.DL.AC3...
Mogli.Legende.des.Dschungels...
Liebe.Bringt.Alles.Ins.Rolle...
Wer.war.Hitler.2017.German.A...
Liebe.Bringt.Alles.Ins.Rolle...
Liebe.Bringt.Alles.Ins.Rolle...
The.Happy.Prince.2018.German...

Cinedubs
Bad.Times.at.the.El.Royale.2...
Bad.Spies.2018.German.DL.AC3...
Aquaman.2018.GERMAN.AC3.MD.7...
Bad.Spies.German.DL.AC3.Dubb...
Bad.Spies.German.DL.AC3.Dubb...
Bad.Times.at.the.El.Royale.G...
Bad.Times.at.the.El.Royale.G...
The.Guilty.German.DL.AC3.Dub...
The.Guilty.German.DL.AC3.Dub...
Johnny.English.Man.lebt.nur....

Neuerscheinungen 2017-18
The.Sun.at.Midnight.2016.Ger...
Bob.Roberts.1992.German.1080...
Deutschland.bleiche.Mutter.1...
Predator.Upgrade.2018.MULTi....
Tales.of.Poe.2014.MERRY.XMAS...
The.Dragon.Unleashed.2018.ME...
he.Dragon.Unleashed.2019.GER...
The.Dragon.Unleashed.2019.GE...
The.Dragon.Unleashed.2019.GE...
Tales.of.Poe.2014.GERMAN.DL....

XXX
BlacksOnBlondes.18.12.18.Can...
BigWetButts.18.12.18.Kat.Dio...
ATKGirlfriends.18.12.18.Lily...
Cum4K.18.12.18.Kendra.Spade....
ConorCoxxx.18.12.14.Lady.Von...
BigTitsAtWork.18.12.18.Abiga...
ATKGirlfriends.18.12.18.Alex...
Blacked.18.12.16.Tori.Black....
ClubSeventeen.18.12.16.Lilli...
BlowBangGirls.18.12.15.Afton...
AbbyWinters.18.12.15.Alessia...
Creampie-Angels.18.12.16.Eli...
CherryPimps.18.12.17.Ana.Fox...
BrothaLovers.18.12.14.Emily....
CreampieInAsia.18.12.07.Joy....
CreampieInAsia.18.12.14.Joy....
ClubSeventeen.18.12.17.Eliza...
BitchConfessions.18.12.16.Di...
Cosmid.18.12.17.Nika.Norse.K...
ATKHairy.18.12.17.Victoria.G...

3D
Limbradur.und.die.Magie.der....
Kaluoka.Hina.Das.Zauberriff....
Limbradur.und.die.Magie.der....
Smallfoot.3D.2018.COMPLETE.B...
Smallfoot.Ein.eisigartiges.A...
Skyscraper.3D.2018.German.DL...
Meg.3D.2018.MULTi.COMPLETE.B...
Meg.3D.2018.German.DL.1080p....
Gans.im.Glueck.3D.2018.MULTi...
The.Art.of.Flight.3D.2011.Ge...
The.End.Of.The.World.3D.2010...
The.First.Avenger.Civil.War....
Die.Unglaublichen.2.2018.3D....
Skyscraper.3D.2018.MULTi.COM...
Ant-Man.And.The.Wasp.3D.2018...

Old_Stuff
Akte.X.S05.German.DTS.DL.108...
Akte.X.S04.German.DTS.DL.108...
Akte.X.S03.German.DTS.DL.108...
Dunkirk.1958.COMPLETE.BLURAY...
Das.Wunder.von.Manhattan.199...
The.Amazing.Spiderman.2.Rise...
Rise.of.the.Predator.2014.Ge...
Detective.Dee.und.das.Geheim...
Detective.Dee.Und.Der.Fluch....
Ghost.Rider.Spirit.of.Vengea...
Species.IV.Das.Erwachen.2007...
Species.IV.Das.Erwachen.2007...
Hotel.Transsilvanien.2012.Ge...
The.Dead.2010.German.DL.1080...
The.Dead.2.India.2013.German...

Filme
Predator.Upgrade.2018.German...
Wenn.suess.das.Mondlicht.auf...
Wenn.suess.das.Mondlicht.auf...
Heiter.bis.wolkig.2012.Germa...
Der.Prinz.und.ich.2004.Germa...
Der.Prinz.und.ich.2004.Germa...
The.Bet.2006.DUAL.COMPLETE.B...
Der.Teufelsschrei.Evilspeak....
Ein.irres.Feeling.1984.Germa...
Ein.irres.Feeling.1984.Germa...
Mutants.Du.wirst.sie.toeten....
Mutants.Du.wirst.sie.toeten....
Nur.noch.72.Stunden.1968.Ger...
Nur.noch.72.Stunden.1968.Ger...
Please.Stand.By.2017.German....
Please.Stand.By.2017.German....
So.High.2001.German.DL.AC3D....
So.High.2001.German.DL.AC3D....
Die.unglaubliche.Reise.in.ei...
Die.unglaubliche.Reise.in.ei...
Tomorrowland.2015.German.AC3...
King.Kong.1976.German.AC3.DL...
Firewall.2006.OPEN.MATTE.Ger...
Die.Peanuts.Der.grosse.Kuerb...

 
 
Der.Prinz.und.ich.2004.German.720p.WebHD.x264-CLASSiCO

Jahr: 2004
Genre: Komödie
Sprache: Deutsch AC3
Laufzeit: 1h 46mn
Bitrate: 5 055 Kbps
Format: MKV
Größe: 3.75 GiB
Release:

Beschreibung:

Paige Morgan ist ein ganz normales junges Mädchen von einer Farm in Milwaukee, die sich an der Universität von Wisconsin auf ihre bis ins Detail geplante Zukunft als Ärztin vorbereitet. Eddie ist eigentlich der Prinz von Dänemark, der sich an derselben Uni incognito vor seinen Pflichten als Thronfolger drückt – und sich in Paige verknallt. Als Paige erfährt, um wen es sich bei ihrem neuen Freund wirklich handelt, befindet sie sich bereits auf dem Weg nach Europa, um Königin zu werden – oder doch nicht?Romantische Teeniekomödie à la “Plötzlich Prinzessin”, in der sich der Prinz von Dänemark und eine bürgerliche Studentin aus Wisconsin ineinander verlieben.




Complete name                            : der.prinz.und.ich.2004.german.720p.webhd.x264-classico.mkv
Format                                   : Matroska
Format version                           : Version 2
File size                                : 3.75 GiB
Duration                                 : 1h 46mn
Overall bit rate                         : 5 055 Kbps
Writing application                      : mkvmerge v4.1.1 ('Bouncin' Back') built on Jul  3 2010 22:54:08
Writing library                          : libebml v1.0.0 + libmatroska v1.0

Video
ID                                       : 1
Format                                   : AVC
Format/Info                              : Advanced Video Codec
Format profile                           : High@L4.1
Format settings, CABAC                   : Yes
Format settings, ReFrames                : 5 frames
Codec ID                                 : V_MPEG4/ISO/AVC
Duration                                 : 1h 46mn
Bit rate                                 : 4 314 Kbps
Width                                    : 1 280 pixels
Height                                   : 720 pixels
Display aspect ratio                     : 16:9
Frame rate mode                          : Constant
Frame rate                               : 25.000 fps
Color space                              : YUV
Chroma subsampling                       : 4:2:0
Bit depth                                : 8 bits
Scan type                                : Progressive
Bits/(Pixel*Frame)                       : 0.187
Stream size                              : 3.20 GiB (85%)
Writing library                          : x264 core 157 r2935 545de2f
Encoding settings                        : cabac=1 / ref=5 / deblock=1:-3:-3 / analyse=0x3:0x133 / me=umh / subme=8 / psy=1 / psy_rd=1.00:0.15 / mixed_ref=1 / me_range=16 / chroma_me=1 / trellis=1 / 8x8dct=1 / cqm=0 / deadzone=21,11 / fast_pskip=0 / chroma_qp_offset=-3 / threads=12 / lookahead_threads=2 / sliced_threads=0 / nr=0 / decimate=1 / interlaced=0 / bluray_compat=0 / constrained_intra=0 / bframes=3 / b_pyramid=2 / b_adapt=2 / b_bias=0 / direct=3 / weightb=1 / open_gop=0 / weightp=2 / keyint=240 / keyint_min=24 / scenecut=40 / intra_refresh=0 / rc_lookahead=50 / rc=crf / mbtree=1 / crf=18.0 / qcomp=0.60 / qpmin=0 / qpmax=69 / qpstep=4 / ip_ratio=1.40 / aq=1:1.00
Language                                 : English
Default                                  : Yes
Forced                                   : No

Audio
ID                                       : 2
Format                                   : AC-3
Format/Info                              : Audio Coding 3
Mode extension                           : CM (complete main)
Format settings, Endianness              : Big
Codec ID                                 : A_AC3
Duration                                 : 1h 46mn
Bit rate mode                            : Constant
Bit rate                                 : 640 Kbps
Channel(s)                               : 6 channels
Channel positions                        : Front: L C R, Side: L R, LFE
Sampling rate                            : 48.0 KHz
Bit depth                                : 16 bits
Compression mode                         : Lossy
Stream size                              : 486 MiB (13%)
Language                                 : German
Default                                  : Yes
Forced                                   : No



Download:
Share Online Share OnlineShare OnlineShare Online
 

Kommentare