HD-AREA wünscht Euch eine besinnliche Weihnachtszeit ;)

DNS SERVER AENDERNum der staatlichen Zensur zu umgehen. Sollten wir von eurem Provider geseprrt werden, nutzt den TOR BROWSER oder ändert euren DNS SERVER.

Filmwünsche können bei uns im Forum abgegeben werden

Wir Speichern Nicht




 
 
 
Top Releases
Being.Mario.Goetze.2018.GERM...
Being.Mario.Goetze.2018.GERM...
Liebe.Bringt.Alles.Ins.Rolle...
Halloween.2018.German.DL.AC3...
Mogli.Legende.des.Dschungels...
Liebe.Bringt.Alles.Ins.Rolle...
Wer.war.Hitler.2017.German.A...
Liebe.Bringt.Alles.Ins.Rolle...
Liebe.Bringt.Alles.Ins.Rolle...
The.Happy.Prince.2018.German...

Cinedubs
Bad.Times.at.the.El.Royale.2...
Bad.Spies.2018.German.DL.AC3...
Aquaman.2018.GERMAN.AC3.MD.7...
Bad.Spies.German.DL.AC3.Dubb...
Bad.Spies.German.DL.AC3.Dubb...
Bad.Times.at.the.El.Royale.G...
Bad.Times.at.the.El.Royale.G...
The.Guilty.German.DL.AC3.Dub...
The.Guilty.German.DL.AC3.Dub...
Johnny.English.Man.lebt.nur....

Neuerscheinungen 2017-18
Bob.Roberts.1992.German.1080...
Deutschland.bleiche.Mutter.1...
Predator.Upgrade.2018.MULTi....
Tales.of.Poe.2014.MERRY.XMAS...
The.Dragon.Unleashed.2018.ME...
he.Dragon.Unleashed.2019.GER...
The.Dragon.Unleashed.2019.GE...
The.Dragon.Unleashed.2019.GE...
Tales.of.Poe.2014.GERMAN.DL....
Tales.of.Poe.2014.GERMAN.MER...

XXX
21FootArt.18.12.18.Lena.Reif...
Yanks.18.11.25.Kolie.Pink.Pu...
ATKHairy.18.12.16.Brielle.Wo...
AnalTeenAngels.18.12.18.Lexi...
AllOver30.18.12.18.Elegant.E...
ALSScan.18.12.16.Amirah.Doub...
Babes.18.12.18.Demi.Sutra.Ho...
Yanks.18.12.02.Katherine.Can...
AllOver30.18.12.17.Lauren.Ph...
Babes.18.12.16.Ashley.Lane.F...
ZeroTolerance.Strap-On.Anal....
AllInternal.18.12.18.Cindy.S...
WildOnCam.18.12.10.Kenzie.Re...
WildOnCam.18.12.11.Keilani.K...
AuntJudys.18.12.17.Fucking.E...
AllGirlMassage.18.12.17.Indi...
Anilos.18.12.18.Misha.Mynx.T...
AuntJudys.18.12.14.Seducing....
ATKHairy.18.12.16.Victoria.G...
YoungCourtesans.18.11.13.Bel...

3D
Limbradur.und.die.Magie.der....
Kaluoka.Hina.Das.Zauberriff....
Limbradur.und.die.Magie.der....
Smallfoot.3D.2018.COMPLETE.B...
Smallfoot.Ein.eisigartiges.A...
Skyscraper.3D.2018.German.DL...
Meg.3D.2018.MULTi.COMPLETE.B...
Meg.3D.2018.German.DL.1080p....
Gans.im.Glueck.3D.2018.MULTi...
The.Art.of.Flight.3D.2011.Ge...
The.End.Of.The.World.3D.2010...
The.First.Avenger.Civil.War....
Die.Unglaublichen.2.2018.3D....
Skyscraper.3D.2018.MULTi.COM...
Ant-Man.And.The.Wasp.3D.2018...

Old_Stuff
Akte.X.S05.German.DTS.DL.108...
Akte.X.S04.German.DTS.DL.108...
Akte.X.S03.German.DTS.DL.108...
Dunkirk.1958.COMPLETE.BLURAY...
Das.Wunder.von.Manhattan.199...
The.Amazing.Spiderman.2.Rise...
Rise.of.the.Predator.2014.Ge...
Detective.Dee.und.das.Geheim...
Detective.Dee.Und.Der.Fluch....
Ghost.Rider.Spirit.of.Vengea...
Species.IV.Das.Erwachen.2007...
Species.IV.Das.Erwachen.2007...
Hotel.Transsilvanien.2012.Ge...
The.Dead.2010.German.DL.1080...
The.Dead.2.India.2013.German...

Filme
Bob.Roberts.1992.German.720p...
Deutschland.bleiche.Mutter.1...
Predator.Upgrade.2018.German...
Ein.Dorf.zieht.blank.2018.Ge...
Das.verrueckteste.Auto.der.W...
Sammys.Abenteuer.Die.Suche.n...
Samurai.Resurrection.2003.Ge...
Noel.Engel.in.Manhattan.2004...
Rocco.und.seine.Brueder.1960...
Ein.Kaefer.auf.Extratour.197...
Verliebt.in.Molly.2013.Germa...
Rock.Star.2001.GERMAN.AC3D.D...
District.9.German.DL.1080p.B...
Rocketeer.1991.German.DL.108...
Rockabilly.Zombies.2013.Germ...
Gremlins.Kleine.Monster.1984...
Rockula.1990.German.DL.1080p...
Rocky.1976.German.DTS.DL.108...
Rodencia.und.der.Zahn.der.Pr...
Roger.und.Ich.1989.German.DL...
Roller.Girl.2009.German.DL.1...
Reise.nach.Indien.1984.Germa...
At.the.Devils.Door.2014.Germ...
Juice.-.City.War.1992.German...

 
 
Deutschland.bleiche.Mutter.1980.German.1080p.BluRay.x264-DOUCEMENT

Sprache: Deutsch AC3
Laufzeit: 2h 31mn
Bitrate: 9 312 Kbps
Format: MKV
Größe: 9.84 GiB
Release:

Beschreibung:

1939 verliebt sich Helene in Hans, der mit Beginn des Polenfeldzugs als Soldat an die Front muss. Helene bleibt zurück, bekommt ihre Tochter Anna, schlägt sich durch den Krieg und entwickelt die Kraft zum Überleben. Als ihr Mann aus dem Krieg zurückkommt, wird Helenes Kraft wie die vieler Trümmerfrauen nicht mehr gebraucht. Helene soll in ihre alte Frauenrolle und die Kleinfamilie zurückfinden, aber das schafft sie nicht. 1950 ist sie krank und verhärtet geworden. Tochter Anna rettet Helene vor dem Selbstmord.
Eva Mattes kämpft sich als Trümmerfrau durch.




File size                                : 9.84 GiB
Duration                                 : 2h 31mn
Overall bit rate                         : 9 312 Kbps
Encoded date                             : UTC 2018-12-21 03:38:30
Writing application                      : mkvmerge v8.3.0 ('Over the Horizon') 64bit
Writing library                          : libebml v1.3.1 + libmatroska v1.4.2
DURATION                                 : 02:31:13.536000000
NUMBER_OF_FRAMES                         : 283548
NUMBER_OF_BYTES                          : 725882880
_STATISTICS_WRITING_APP                  : mkvmerge v8.3.0 ('Over the Horizon') 64bit
_STATISTICS_WRITING_DATE_UTC             : 2018-12-21 03:38:30
_STATISTICS_TAGS                         : BPS DURATION NUMBER_OF_FRAMES NUMBER_OF_BYTES

Video
ID                                       : 1
Format                                   : AVC
Format/Info                              : Advanced Video Codec
Format profile                           : High@L4.1
Format settings, CABAC                   : Yes
Format settings, ReFrames                : 4 frames
Codec ID                                 : V_MPEG4/ISO/AVC
Duration                                 : 2h 31mn
Bit rate                                 : 8 670 Kbps
Width                                    : 1 920 pixels
Height                                   : 1 080 pixels
Display aspect ratio                     : 16:9
Frame rate mode                          : Constant
Frame rate                               : 24.000 fps
Color space                              : YUV
Chroma subsampling                       : 4:2:0
Bit depth                                : 8 bits
Scan type                                : Progressive
Bits/(Pixel*Frame)                       : 0.174
Stream size                              : 8.96 GiB (91%)
Writing library                          : x264 core 155 r2901 7d0ff22
Encoding settings                        : cabac=1 / ref=4 / deblock=1:-1:-1 / analyse=0x3:0x133 / me=umh / subme=7 / psy=1 / psy_rd=1.00:0.15 / mixed_ref=1 / me_range=16 / chroma_me=1 / trellis=2 / 8x8dct=1 / cqm=0 / deadzone=21,11 / fast_pskip=0 / chroma_qp_offset=-3 / threads=24 / lookahead_threads=4 / sliced_threads=0 / nr=0 / decimate=1 / interlaced=0 / bluray_compat=0 / constrained_intra=0 / bframes=3 / b_pyramid=2 / b_adapt=1 / b_bias=0 / direct=3 / weightb=1 / open_gop=0 / weightp=2 / keyint=250 / keyint_min=24 / scenecut=40 / intra_refresh=0 / rc_lookahead=50 / rc=2pass / mbtree=1 / bitrate=8670 / ratetol=1.0 / qcomp=0.60 / qpmin=0 / qpmax=69 / qpstep=4 / cplxblur=20.0 / qblur=0.5 / ip_ratio=1.40 / aq=1:1.00
Language                                 : English
Default                                  : Yes
Forced                                   : No
DURATION                                 : 02:31:13.542000000
NUMBER_OF_FRAMES                         : 217765
NUMBER_OF_BYTES                          : 9833223697
_STATISTICS_WRITING_APP                  : mkvmerge v8.3.0 ('Over the Horizon') 64bit
_STATISTICS_WRITING_DATE_UTC             : 2018-12-21 03:38:30
_STATISTICS_TAGS                         : BPS DURATION NUMBER_OF_FRAMES NUMBER_OF_BYTES

Audio
ID                                       : 2
Format                                   : AC-3
Format/Info                              : Audio Coding 3
Mode extension                           : CM (complete main)
Format settings, Endianness              : Big
Codec ID                                 : A_AC3
Duration                                 : 2h 31mn
Bit rate mode                            : Constant
Bit rate                                 : 640 Kbps
Channel(s)                               : 1 channel
Channel positions                        : Front: C
Sampling rate                            : 48.0 KHz
Bit depth                                : 16 bits
Compression mode                         : Lossy
Stream size                              : 692 MiB (7%)
Language                                 : German
Default                                  : Yes
Forced                                   : No



Download:
Share Online Share OnlineShare OnlineShare Online
 

Kommentare