HD-AREA wünscht Euch eine besinnliche Weihnachtszeit ;)

DNS SERVER AENDERNum der staatlichen Zensur zu umgehen. Sollten wir von eurem Provider geseprrt werden, nutzt den TOR BROWSER oder ändert euren DNS SERVER.

Filmwünsche können bei uns im Forum abgegeben werden

Wir Speichern Nicht




 
 
 
Top Releases
Being.Mario.Goetze.2018.GERM...
Being.Mario.Goetze.2018.GERM...
Liebe.Bringt.Alles.Ins.Rolle...
Halloween.2018.German.DL.AC3...
Mogli.Legende.des.Dschungels...
Liebe.Bringt.Alles.Ins.Rolle...
Wer.war.Hitler.2017.German.A...
Liebe.Bringt.Alles.Ins.Rolle...
Liebe.Bringt.Alles.Ins.Rolle...
The.Happy.Prince.2018.German...

Cinedubs
Bad.Times.at.the.El.Royale.2...
Bad.Spies.2018.German.DL.AC3...
Aquaman.2018.GERMAN.AC3.MD.7...
Bad.Spies.German.DL.AC3.Dubb...
Bad.Spies.German.DL.AC3.Dubb...
Bad.Times.at.the.El.Royale.G...
Bad.Times.at.the.El.Royale.G...
The.Guilty.German.DL.AC3.Dub...
The.Guilty.German.DL.AC3.Dub...
Johnny.English.Man.lebt.nur....

Neuerscheinungen 2017-18
Predator.Upgrade.2018.MULTi....
Tales.of.Poe.2014.MERRY.XMAS...
The.Dragon.Unleashed.2018.ME...
he.Dragon.Unleashed.2019.GER...
The.Dragon.Unleashed.2019.GE...
The.Dragon.Unleashed.2019.GE...
Tales.of.Poe.2014.GERMAN.DL....
Tales.of.Poe.2014.GERMAN.MER...
Tales.of.Poe.2014.GERMAN.DL....
Kaluoka.Hina.Das.Zauberriff....

XXX
21FootArt.18.12.18.Lena.Reif...
Yanks.18.11.25.Kolie.Pink.Pu...
ATKHairy.18.12.16.Brielle.Wo...
AnalTeenAngels.18.12.18.Lexi...
AllOver30.18.12.18.Elegant.E...
ALSScan.18.12.16.Amirah.Doub...
Babes.18.12.18.Demi.Sutra.Ho...
Yanks.18.12.02.Katherine.Can...
AllOver30.18.12.17.Lauren.Ph...
Babes.18.12.16.Ashley.Lane.F...
ZeroTolerance.Strap-On.Anal....
AllInternal.18.12.18.Cindy.S...
WildOnCam.18.12.10.Kenzie.Re...
WildOnCam.18.12.11.Keilani.K...
AuntJudys.18.12.17.Fucking.E...
AllGirlMassage.18.12.17.Indi...
Anilos.18.12.18.Misha.Mynx.T...
AuntJudys.18.12.14.Seducing....
ATKHairy.18.12.16.Victoria.G...
YoungCourtesans.18.11.13.Bel...

3D
Limbradur.und.die.Magie.der....
Kaluoka.Hina.Das.Zauberriff....
Limbradur.und.die.Magie.der....
Smallfoot.3D.2018.COMPLETE.B...
Smallfoot.Ein.eisigartiges.A...
Skyscraper.3D.2018.German.DL...
Meg.3D.2018.MULTi.COMPLETE.B...
Meg.3D.2018.German.DL.1080p....
Gans.im.Glueck.3D.2018.MULTi...
The.Art.of.Flight.3D.2011.Ge...
The.End.Of.The.World.3D.2010...
The.First.Avenger.Civil.War....
Die.Unglaublichen.2.2018.3D....
Skyscraper.3D.2018.MULTi.COM...
Ant-Man.And.The.Wasp.3D.2018...

Old_Stuff
Akte.X.S05.German.DTS.DL.108...
Akte.X.S04.German.DTS.DL.108...
Akte.X.S03.German.DTS.DL.108...
Dunkirk.1958.COMPLETE.BLURAY...
Das.Wunder.von.Manhattan.199...
The.Amazing.Spiderman.2.Rise...
Rise.of.the.Predator.2014.Ge...
Detective.Dee.und.das.Geheim...
Detective.Dee.Und.Der.Fluch....
Ghost.Rider.Spirit.of.Vengea...
Species.IV.Das.Erwachen.2007...
Species.IV.Das.Erwachen.2007...
Hotel.Transsilvanien.2012.Ge...
The.Dead.2010.German.DL.1080...
The.Dead.2.India.2013.German...

Filme
Predator.Upgrade.2018.German...
Ein.Dorf.zieht.blank.2018.Ge...
Das.verrueckteste.Auto.der.W...
Sammys.Abenteuer.Die.Suche.n...
Samurai.Resurrection.2003.Ge...
Noel.Engel.in.Manhattan.2004...
Rocco.und.seine.Brueder.1960...
Ein.Kaefer.auf.Extratour.197...
Verliebt.in.Molly.2013.Germa...
Rock.Star.2001.GERMAN.AC3D.D...
District.9.German.DL.1080p.B...
Rocketeer.1991.German.DL.108...
Rockabilly.Zombies.2013.Germ...
Gremlins.Kleine.Monster.1984...
Rockula.1990.German.DL.1080p...
Rocky.1976.German.DTS.DL.108...
Rodencia.und.der.Zahn.der.Pr...
Roger.und.Ich.1989.German.DL...
Roller.Girl.2009.German.DL.1...
Reise.nach.Indien.1984.Germa...
At.the.Devils.Door.2014.Germ...
Juice.-.City.War.1992.German...
Totentanz.der.Vampire.1971.G...
Meg.2018.German.DL.1080p.Blu...

 
 
Being.Mario.Goetze.2018.GERMAN.DOKU.MERRY.XMAS.1080p.BluRay.x264-UNiVERSUM

Jahr: 2018
Genre: Dokumentation
Sprache: Deutsch AC3
Laufzeit: 2h 16mn
Bitrate: 8 646 Kbps
Format: MKV
Größe: 8.25 GiB
Release:

Beschreibung:

Grimme-Preisträger Aljoscha Pause begleitete den Weltmeister Mario Götze 7 Monate lang mit der Kamera. Die Langzeit-Dokumentation zeigt dabei nicht nur Götzes sportlichen Alltag und seinen Kampf um ein WM-Ticket.
Sie gibt auch weitreichende Einblicke in sein privates Leben. Mit zahlreichen prominenten Weggefährten und Angehörigen blickt der Film zurück auf die Anfänge, die großen Erfolge und die Krisen des Dortmunders und thematisiert erstmals auch ausführlich Götzes Krankheitsgeschichte.
Der 5-malige Deutsche Meister schildert detailreich und offen wie nie zuvor seinen Blick auf den Fußball und das Leben und lässt den Zuschauer so erahnen, was es bedeutet, Mario Götze zu sein.



Complete name                            : being.mario.goetze.2018.german.doku.1080p.bluray.x264-universum.mkv
Format                                   : Matroska
Format version                           : Version 4 / Version 2
File size                                : 8.25 GiB
Duration                                 : 2h 16mn
Overall bit rate                         : 8 646 Kbps
Encoded date                             : UTC 2018-12-23 07:29:30
Writing application                      : mkvmerge v7.9.0 ('Birds') 64bit
Writing library                          : libebml v1.3.1 + libmatroska v1.4.2
DURATION                                 : 02:16:41.504000000
NUMBER_OF_FRAMES                         : 256297
NUMBER_OF_BYTES                          : 656120320
_STATISTICS_WRITING_APP                  : mkvmerge v7.9.0 ('Birds') 64bit
_STATISTICS_WRITING_DATE_UTC             : 2018-12-23 07:29:30
_STATISTICS_TAGS                         : BPS DURATION NUMBER_OF_FRAMES NUMBER_OF_BYTES

Video
ID                                       : 1
Format                                   : AVC
Format/Info                              : Advanced Video Codec
Format profile                           : High@L4.1
Format settings, CABAC                   : Yes
Format settings, ReFrames                : 4 frames
Codec ID                                 : V_MPEG4/ISO/AVC
Duration                                 : 2h 16mn
Bit rate                                 : 7 834 Kbps
Width                                    : 1 920 pixels
Height                                   : 1 080 pixels
Display aspect ratio                     : 16:9
Frame rate mode                          : Constant
Frame rate                               : 25.000 fps
Color space                              : YUV
Chroma subsampling                       : 4:2:0
Bit depth                                : 8 bits
Scan type                                : Progressive
Bits/(Pixel*Frame)                       : 0.151
Stream size                              : 7.48 GiB (91%)
Writing library                          : x264 core 157 r2935 545de2f
Encoding settings                        : cabac=1 / ref=4 / deblock=1:-1:-1 / analyse=0x3:0x133 / me=umh / subme=8 / psy=1 / psy_rd=1.00:0.15 / mixed_ref=1 / me_range=16 / chroma_me=1 / trellis=2 / 8x8dct=1 / cqm=0 / deadzone=21,11 / fast_pskip=0 / chroma_qp_offset=-3 / threads=18 / lookahead_threads=3 / sliced_threads=0 / nr=0 / decimate=1 / interlaced=0 / bluray_compat=0 / constrained_intra=0 / bframes=3 / b_pyramid=2 / b_adapt=1 / b_bias=0 / direct=3 / weightb=1 / open_gop=0 / weightp=2 / keyint=250 / keyint_min=25 / scenecut=40 / intra_refresh=0 / rc_lookahead=40 / rc=crf / mbtree=1 / crf=20.0 / qcomp=0.60 / qpmin=10 / qpmax=69 / qpstep=4 / ip_ratio=1.40 / aq=1:1.00
Language                                 : German
Default                                  : Yes
Forced                                   : No
DURATION                                 : 02:16:41.480000000
NUMBER_OF_FRAMES                         : 205037
NUMBER_OF_BYTES                          : 8205538094
_STATISTICS_WRITING_APP                  : mkvmerge v7.9.0 ('Birds') 64bit
_STATISTICS_WRITING_DATE_UTC             : 2018-12-23 07:29:30
_STATISTICS_TAGS                         : BPS DURATION NUMBER_OF_FRAMES NUMBER_OF_BYTES

Audio
ID                                       : 2
Format                                   : AC-3
Format/Info                              : Audio Coding 3
Mode extension                           : CM (complete main)
Format settings, Endianness              : Big
Codec ID                                 : A_AC3
Duration                                 : 2h 16mn
Bit rate mode                            : Constant
Bit rate                                 : 640 Kbps
Channel(s)                               : 2 channels
Channel positions                        : Front: L R
Sampling rate                            : 48.0 KHz
Bit depth                                : 16 bits
Compression mode                         : Lossy
Stream size                              : 626 MiB (7%)
Title                                    : AC3
Language                                 : German
Default                                  : Yes
Forced                                   : No


Download:
Share Online Share OnlineShare OnlineShare Online
 

Kommentare