HD-AREA wünscht Euch eine besinnliche Weihnachtszeit ;)

DNS SERVER AENDERNum der staatlichen Zensur zu umgehen. Sollten wir von eurem Provider geseprrt werden, nutzt den TOR BROWSER oder ändert euren DNS SERVER.

Filmwünsche können bei uns im Forum abgegeben werden

Wir Speichern Nicht




 
 
 
Top Releases
Mogli.Legende.des.Dschungels...
Liebe.Bringt.Alles.Ins.Rolle...
Wer.war.Hitler.2017.German.A...
Liebe.Bringt.Alles.Ins.Rolle...
Liebe.Bringt.Alles.Ins.Rolle...
The.Happy.Prince.2018.German...
Espen.und.die.Legende.vom.Be...
Smallfoot.Ein.eisigartiges.A...
Smallfoot.Ein.eisigartiges.A...
Smallfoot.Ein.eisigartiges.A...

Cinedubs
Bad.Times.at.the.El.Royale.2...
Bad.Spies.2018.German.DL.AC3...
Aquaman.2018.GERMAN.AC3.MD.7...
Bad.Spies.German.DL.AC3.Dubb...
Bad.Spies.German.DL.AC3.Dubb...
Bad.Times.at.the.El.Royale.G...
Bad.Times.at.the.El.Royale.G...
The.Guilty.German.DL.AC3.Dub...
The.Guilty.German.DL.AC3.Dub...
Johnny.English.Man.lebt.nur....

Neuerscheinungen 2017-18
he.Dragon.Unleashed.2019.GER...
The.Dragon.Unleashed.2019.GE...
The.Dragon.Unleashed.2019.GE...
Tales.of.Poe.2014.GERMAN.DL....
Tales.of.Poe.2014.GERMAN.MER...
Tales.of.Poe.2014.GERMAN.DL....
Kaluoka.Hina.Das.Zauberriff....
Limbradur.und.die.Magie.der....
Kaluoka.Hina.Das.Zauberriff....
Wildling.2018.German.DL.1080...

XXX
Whos.Your.Mama.12.XXX.1080p....
Vixen.18.12.10.Alexa.Grace.A...
Tushy.18.12.12.Ella.Nova.And...
ProducersFun.18.10.13.Molly....
WildOnCam.18.11.26.Kayla.Par...
WickedPictures.I.Know.Youre....
WhenGirlsPlay.18.12.10.Jilli...
VIPissy.18.12.10.Licky.Lex.A...
TrickyOldTeacher.18.12.10.Me...
ProducersFun.18.09.23.Gia.Lo...
ThisGirlSucks.18.12.12.Kyler...
WickedPictures.He.Loves.Me.I...
ProducersFun.18.09.19.Jill.K...
WankItNow.18.12.12.Georgie.L...
TushyRaw.18.12.10.Karla.Kush...
WickedPictures.He.Loves.Me.I...
WankItNow.18.12.12.Jess.West...
Whos.Your.Mama.23.XXX.1080p....
WildOnCam.18.12.03.Vanna.Bar...
WankItNow.18.12.10.Dolly.P.H...

3D
Limbradur.und.die.Magie.der....
Smallfoot.3D.2018.COMPLETE.B...
Smallfoot.Ein.eisigartiges.A...
Skyscraper.3D.2018.German.DL...
Meg.3D.2018.MULTi.COMPLETE.B...
Meg.3D.2018.German.DL.1080p....
Gans.im.Glueck.3D.2018.MULTi...
The.Art.of.Flight.3D.2011.Ge...
The.End.Of.The.World.3D.2010...
The.First.Avenger.Civil.War....
Die.Unglaublichen.2.2018.3D....
Skyscraper.3D.2018.MULTi.COM...
Ant-Man.And.The.Wasp.3D.2018...
Ant.Man.and.the.Wasp.3D.2018...
Die.Unglaublichen.2.3D.2018....

Old_Stuff
Akte.X.S05.German.DTS.DL.108...
Akte.X.S04.German.DTS.DL.108...
Akte.X.S03.German.DTS.DL.108...
Dunkirk.1958.COMPLETE.BLURAY...
Das.Wunder.von.Manhattan.199...
The.Amazing.Spiderman.2.Rise...
Rise.of.the.Predator.2014.Ge...
Detective.Dee.und.das.Geheim...
Detective.Dee.Und.Der.Fluch....
Ghost.Rider.Spirit.of.Vengea...
Species.IV.Das.Erwachen.2007...
Species.IV.Das.Erwachen.2007...
Hotel.Transsilvanien.2012.Ge...
The.Dead.2010.German.DL.1080...
The.Dead.2.India.2013.German...

Filme
Superman.The.Movie.1978.UHD2...
Predator.Upgrade.2018.German...
Smallfoot.Ein.eisigartiges.A...
Sam.Whiskey.1969.German.DL.1...
Salz.und.Pfeffer.1968.German...
Running.Man.1987.German.REMA...
Kevin.Allein.in.New.York.199...
Ice.Age.Eine.coole.Bescherun...
Salon.Kitty.1976.German.DL.1...
Salsa.Its.Hot.1988.German.DL...
Salt.DC.German.DL.1080p.BluR...
Salvador.1986.German.DTS.108...
American.Ultra.2015.German.A...
Pauline.am.Strand.1983.Germa...
Salt.Extended.Cut.German.DL....
Sam.O.Cool.Ein.schraeger.Vog...
Naked.Weapon.2002.German.DTS...
Spaceballs.1987.German.AC3D....
My.Fair.Lady.-.50th.Annivers...
The.Avengers.2012.UNCENSORED...
The.Crying.Game.1992.German....
Ducktales.der.Film.Jaeger.de...
Ducktales.der.Film.Jaeger.de...
Ein frohes Fest .........

 
 
Mogli.Legende.des.Dschungels.2018.German.AC3.DL.1080p.Netflix.UHD.x265-FuN

Jahr: 2018
Genre: Drama, Fantasy
Sprache: Deutsch AC3 | Englisch AC3
Laufzeit: 1h 44mn
Bitrate: 3 342 Kbps
Format: MKV
Größe: 2.45 GiB
Release:

Beschreibung:

Waisenjunge Mogli wird im indischen Dschungel von einem Wolfsrudel großgezogen. Schnell fühlt Mogli in der Wildnis zuhause, doch nicht jedes Tier ist ihm so freundlich zugetan wie seine wölfische Ziehmuter, der gemütliche Bär Baloo oder der weise Panther Bagheera. Tiger Shir Khan würde das Menschenkind am liebsten fressen – doch das gestreifte Raubtier ist nicht die einzige Gefahr für den Jungen, der sich irgendwann der Tatsache stellen muss, ein Mensch und kein Tier zu sein...



Complete name                            : Mogli.Legende.des.Dschungels.2018.German.AC3.DL.1080p.NETFLIX.UHD.x265-FuN.mkv
Format                                   : Matroska
Format version                           : Version 4 / Version 2
File size                                : 2.45 GiB
Duration                                 : 1h 44mn
Overall bit rate                         : 3 342 Kbps
Movie name                               : mowgli.legend.of.the.jungle.2018.2160p.webrip.x265-brink
Encoded date                             : UTC 2018-12-23 16:12:03
Writing application                      : mkvmerge v29.0.0 ('Like It Or Not') 64-bit
Writing library                          : libebml v1.3.6 + libmatroska v1.4.9
DURATION                                 : 01:43:39.046000000
NUMBER_OF_FRAMES                         : 1262
NUMBER_OF_BYTES                          : 29342
_STATISTICS_WRITING_APP                  : mkvmerge v29.0.0 ('Like It Or Not') 64-bit
_STATISTICS_WRITING_DATE_UTC             : 2018-12-23 16:12:03
_STATISTICS_TAGS                         : BPS DURATION NUMBER_OF_FRAMES NUMBER_OF_BYTES

Video
ID                                       : 1
Format                                   : HEVC
Format/Info                              : High Efficiency Video Coding
Format profile                           : Main@L4.0
Codec ID                                 : V_MPEGH/ISO/HEVC
Duration                                 : 1h 44mn
Bit rate                                 : 2 444 Kbps
Width                                    : 1 920 pixels
Height                                   : 802 pixels
Display aspect ratio                     : 2.40:1
Frame rate mode                          : Constant
Frame rate                               : 23.976 fps
Color space                              : YUV
Chroma subsampling                       : 4:2:0
Bit depth                                : 8 bits
Bits/(Pixel*Frame)                       : 0.066
Stream size                              : 1.79 GiB (73%)
Writing library                          : x265 2.6:[Linux][GCC 6.4.0][64 bit] 8bit+10bit+12bit
Encoding settings                        : cpuid=1173503 / frame-threads=3 / wpp / no-pmode / no-pme / no-psnr / no-ssim / log-level=2 / input-csp=1 / input-res=1920x802 / interlace=0 / total-frames=0 / level-idc=0 / high-tier=1 / uhd-bd=0 / ref=3 / no-allow-non-conformance / no-repeat-headers / annexb / no-aud / no-hrd / info / hash=0 / no-temporal-layers / open-gop / min-keyint=24 / keyint=240 / bframes=4 / b-adapt=2 / b-pyramid / bframe-bias=0 / rc-lookahead=20 / lookahead-slices=5 / scenecut=40 / no-intra-refresh / ctu=64 / min-cu-size=8 / no-rect / no-amp / max-tu-size=32 / tu-inter-depth=1 / tu-intra-depth=1 / limit-tu=0 / rdoq-level=0 / dynamic-rd=0.00 / no-ssim-rd / signhide / no-tskip / nr-intra=0 / nr-inter=0 / no-constrained-intra / strong-intra-smoothing / max-merge=2 / limit-refs=3 / no-limit-modes / me=1 / subme=2 / merange=57 / temporal-mvp / weightp / no-weightb / no-analyze-src-pics / deblock=0:0 / no-sao / no-sao-non-deblock / rd=3 / no-early-skip / rskip / no-fast-intra / no-tskip-fast / no-cu-lossless / no-b-intra / no-splitrd-skip / rdpenalty=0 / psy-rd=2.00 / psy-rdoq=0.00 / no-rd-refine / analysis-reuse-mode=0 / no-lossless / cbqpoffs=0 / crqpoffs=0 / rc=crf / crf=20.0 / qcomp=0.60 / qpstep=4 / stats-write=0 / stats-read=0 / ipratio=1.40 / pbratio=1.30 / aq-mode=1 / aq-strength=1.00 / cutree / zone-count=0 / no-strict-cbr / qg-size=32 / no-rc-grain / qpmax=69 / qpmin=0 / no-const-vbv / sar=1 / overscan=0 / videoformat=5 / range=0 / colorprim=1 / transfer=1 / colormatrix=1 / chromaloc=0 / display-window=0 / max-cll=0,0 / min-luma=0 / max-luma=255 / log2-max-poc-lsb=8 / vui-timing-info / vui-hrd-info / slices=1 / no-opt-qp-pps / no-opt-ref-list-length-pps / no-multi-pass-opt-rps / scenecut-bias=0.05 / no-opt-cu-delta-qp / no-aq-motion / no-hdr / no-hdr-opt / no-dhdr10-opt / analysis-reuse-level=5 / scale-factor=0 / refine-intra=0 / refine-inter=0 / refine-mv=0 / no-limit-sao / ctu-info=0 / no-lowpass-dct / refine-mv-type=0 / copy-pic=1
Default                                  : Yes
Forced                                   : No
DURATION                                 : 01:44:52.912000000
NUMBER_OF_FRAMES                         : 150879
NUMBER_OF_BYTES                          : 1972798106
_STATISTICS_WRITING_APP                  : mkvmerge v29.0.0 ('Like It Or Not') 64-bit
_STATISTICS_WRITING_DATE_UTC             : 2018-12-23 16:12:03
_STATISTICS_TAGS                         : BPS DURATION NUMBER_OF_FRAMES NUMBER_OF_BYTES

Audio #1
ID                                       : 2
Format                                   : AC-3
Format/Info                              : Audio Coding 3
Mode extension                           : CM (complete main)
Format settings, Endianness              : Big
Codec ID                                 : A_AC3
Duration                                 : 1h 44mn
Bit rate mode                            : Constant
Bit rate                                 : 384 Kbps
Channel(s)                               : 6 channels
Channel positions                        : Front: L C R, Side: L R, LFE
Sampling rate                            : 48.0 KHz
Bit depth                                : 16 bits
Compression mode                         : Lossy
Delay relative to video                  : -5ms
Stream size                              : 288 MiB (11%)
Title                                    : Surround
Language                                 : German
Default                                  : Yes
Forced                                   : No
DURATION                                 : 01:44:52.832000000
NUMBER_OF_FRAMES                         : 196651
NUMBER_OF_BYTES                          : 352398592
_STATISTICS_WRITING_APP                  : mkvmerge v29.0.0 ('Like It Or Not') 64-bit
_STATISTICS_WRITING_DATE_UTC             : 2018-12-23 16:12:03
_STATISTICS_TAGS                         : BPS DURATION NUMBER_OF_FRAMES NUMBER_OF_BYTES

Audio #2
ID                                       : 3
Format                                   : AC-3
Format/Info                              : Audio Coding 3
Mode extension                           : CM (complete main)
Format settings, Endianness              : Big
Codec ID                                 : A_AC3
Duration                                 : 1h 44mn
Bit rate mode                            : Constant
Bit rate                                 : 448 Kbps
Channel(s)                               : 6 channels
Channel positions                        : Front: L C R, Side: L R, LFE
Sampling rate                            : 48.0 KHz
Bit depth                                : 16 bits
Compression mode                         : Lossy
Stream size                              : 336 MiB (13%)
Title                                    : Surround
Language                                 : English
Default                                  : No
Forced                                   : No


Download:
Share Online Share OnlineShare OnlineShare Online
 

Kommentare