HD-AREA wünscht Euch eine besinnliche Weihnachtszeit ;)

DNS SERVER AENDERNum der staatlichen Zensur zu umgehen. Sollten wir von eurem Provider geseprrt werden, nutzt den TOR BROWSER oder ändert euren DNS SERVER.

Filmwünsche können bei uns im Forum abgegeben werden

Wir Speichern Nicht




 
 
 
Top Releases
The.Happy.Prince.2018.German...
Espen.und.die.Legende.vom.Be...
Smallfoot.Ein.eisigartiges.A...
Smallfoot.Ein.eisigartiges.A...
Smallfoot.Ein.eisigartiges.A...
Hubert.und.Staller.Eine.scho...
Hubert.und.Staller.Eine.scho...
Hubert.und.Staller.Eine.scho...
Bird.Box.Schliesse.deine.Aug...
Bird.Box.Schliesse.deine.Aug...

Cinedubs
Aquaman.2018.GERMAN.AC3.MD.7...
Bad.Spies.German.DL.AC3.Dubb...
Bad.Spies.German.DL.AC3.Dubb...
Bad.Times.at.the.El.Royale.G...
Bad.Times.at.the.El.Royale.G...
The.Guilty.German.DL.AC3.Dub...
The.Guilty.German.DL.AC3.Dub...
Johnny.English.Man.lebt.nur....
Johnny.English.Man.lebt.nur....
Johnny.English.Man.lebt.nur....

Neuerscheinungen 2017-18
Mannequin.1987.DUAL.COMPLETE...
Monster.Hunt.2.2018.German.A...
The.Untold.Story.1993.DUAL.C...
The.Untold.Story.GERMAN.1993...
Wildling.2018.DUAL.COMPLETE....
They.Came.Together.2014.Germ...
Spinning.Man.Im.Dunkel.deine...
Amores.perros.2000.German.10...
Predator.Upgrade.2018.German...
Predator.Upgrade.2018.German...

XXX
TushyRaw.18.12.10.Karla.Kush...
WickedPictures.He.Loves.Me.I...
WankItNow.18.12.12.Jess.West...
Whos.Your.Mama.23.XXX.1080p....
WildOnCam.18.12.03.Vanna.Bar...
WankItNow.18.12.10.Dolly.P.H...
WickedPictures.After.Forever...
WhenGirlsPlay.18.12.12.Alexa...
ProducersFun.18.10.23.Jillia...
WickedPictures.After.Forever...
VivThomas.18.12.12.Petra.F.A...
WankItNow.18.12.10.Sophia.Sm...
WetAndPissy.18.12.10.Nicolet...
WetAndPuffy.18.12.11.Angel.W...
TrueAnal.18.12.09.Mi.Ha.Doan...
ProducersFun.18.10.06.Khloe....
Private.18.12.11.Lilu.Moon.A...
LethalHardcore.Sperm.Filled....
ProducersFun.18.08.10.Natash...
LaurenPhillips.17.10.06.Carm...

3D
Smallfoot.3D.2018.COMPLETE.B...
Smallfoot.Ein.eisigartiges.A...
Skyscraper.3D.2018.German.DL...
Meg.3D.2018.MULTi.COMPLETE.B...
Meg.3D.2018.German.DL.1080p....
Gans.im.Glueck.3D.2018.MULTi...
The.Art.of.Flight.3D.2011.Ge...
The.End.Of.The.World.3D.2010...
The.First.Avenger.Civil.War....
Die.Unglaublichen.2.2018.3D....
Skyscraper.3D.2018.MULTi.COM...
Ant-Man.And.The.Wasp.3D.2018...
Ant.Man.and.the.Wasp.3D.2018...
Die.Unglaublichen.2.3D.2018....
Die.Unglaublichen.2.2018.3D....

Old_Stuff
Akte.X.S05.German.DTS.DL.108...
Akte.X.S04.German.DTS.DL.108...
Akte.X.S03.German.DTS.DL.108...
Dunkirk.1958.COMPLETE.BLURAY...
Das.Wunder.von.Manhattan.199...
The.Amazing.Spiderman.2.Rise...
Rise.of.the.Predator.2014.Ge...
Detective.Dee.und.das.Geheim...
Detective.Dee.Und.Der.Fluch....
Ghost.Rider.Spirit.of.Vengea...
Species.IV.Das.Erwachen.2007...
Species.IV.Das.Erwachen.2007...
Hotel.Transsilvanien.2012.Ge...
The.Dead.2010.German.DL.1080...
The.Dead.2.India.2013.German...

Filme
Es.ist.ein.Elch.entsprungen....
Santa.Clause.3.Eine.frostige...
Monster.Hunt.2015.German.AC3...
Saint.Laurent.2014.German.10...
Saints.and.Soldiers.2003.Ger...
Saints.and.Soldiers.III.Batt...
Saiten.des.Lebens.2012.Germa...
Inside.Man.2006.German.DL.10...
S.W.A.T.Firefight.2011.Germa...
Charles.Dickens.Eine.Weihnac...
Sadistico.1971.German.DL.108...
Sacrifice.2011.German.DL.108...
Sabotage.Dark.Assassin.UNCUT...
Wo.die.Liebe.hinfaellt.1935....
Safari.2009.German.1080p.Blu...
Surrogates.Mein.zweites.Ich....
The.Cooler.2003.German.AC3D....
Sag.kein.Wort.2001.German.DL...
S.H.I.T.Die.Highschool.GmbH....
Safari.2013.German.DL.1080p....
Wintermaerchen.1992.German.A...
The.Nun.2018.German.DL.1080p...
Sag.nicht.wer.du.bist.2013.G...
Versprochen.ist.versprochen....

 
 
The.Happy.Prince.2018.German.AC3.DL.1080p.BluRay.x265-FuN

Jahr: 2018
Genre: Biografie, Drama
Sprache: Deutsch AC3 | Englisch AC3
Laufzeit: 1h 45mn
Bitrate: 1 499 Kbps
Format: MKV
Größe: 1.11 GiB
Release:

Beschreibung:

Ein wilder und bewegender Rückblick auf das turbulente Leben des berühmten Schriftstellers Oscar Wilde! Es gab eine Zeit, da wurde Oscar Wilde geliebt: Von den Kritikern, die seine Wortgewandtheit lobten, von den Zuschauern, die seine Stücke verehrten sowie von der Oberschicht, die sich gerne mit ihm schmückte. Doch als Wildes „verabscheuungswürdige“ Liaison mit dem Sohn eines schottischen Adligen ihn für zwei Jahre ins Zuchthaus mit schwerer Zwangsarbeit bringt, kehrt er 1897 als kranker Mann von dort zurück. Im Pariser Exil lässt er nur noch wenige Menschen an sich heran und ein Leben voller Exzesse, genialer Gedanken und voller Liebe Revue passieren. Denn ein Leben ohne Liebe wäre für Oscar Wilde undenkbar gewesen.



Complete name                            : The.Happy.Prince.x265.mkv
Format                                   : Matroska
Format version                           : Version 4 / Version 2
File size                                : 1.11 GiB
Duration                                 : 1h 45mn
Overall bit rate                         : 1 499 Kbps
Encoded date                             : UTC 2018-12-21 01:18:56
Writing application                      : mkvmerge v10.0.0 ('To Drown In You') 64bit
Writing library                          : libebml v1.3.4 + libmatroska v1.4.5
DURATION                                 : 00:46:32.328000000
NUMBER_OF_FRAMES                         : 66
NUMBER_OF_BYTES                          : 199213
_STATISTICS_WRITING_APP                  : mkvmerge v10.0.0 ('To Drown In You') 64bit
_STATISTICS_WRITING_DATE_UTC             : 2018-12-21 01:18:56
_STATISTICS_TAGS                         : BPS DURATION NUMBER_OF_FRAMES NUMBER_OF_BYTES

Video
ID                                       : 1
Format                                   : HEVC
Format/Info                              : High Efficiency Video Coding
Format profile                           : Main@L4.0
Codec ID                                 : V_MPEGH/ISO/HEVC
Duration                                 : 1h 45mn
Bit rate                                 : 701 Kbps
Width                                    : 1 920 pixels
Height                                   : 804 pixels
Display aspect ratio                     : 2.40:1
Frame rate mode                          : Constant
Frame rate                               : 24.000 fps
Color space                              : YUV
Chroma subsampling                       : 4:2:0
Bit depth                                : 8 bits
Bits/(Pixel*Frame)                       : 0.019
Stream size                              : 530 MiB (47%)
Writing library                          : x265 2.6:[Windows][GCC 7.3.0][64 bit] 8bit+10bit+12bit
Encoding settings                        : cpuid=1173503 / frame-threads=3 / numa-pools=8 / wpp / no-pmode / no-pme / psnr / no-ssim / log-level=2 / input-csp=1 / input-res=1920x804 / interlace=0 / total-frames=0 / level-idc=0 / high-tier=1 / uhd-bd=0 / ref=3 / no-allow-non-conformance / no-repeat-headers / annexb / no-aud / no-hrd / info / hash=0 / no-temporal-layers / open-gop / min-keyint=24 / keyint=240 / bframes=4 / b-adapt=2 / b-pyramid / bframe-bias=0 / rc-lookahead=20 / lookahead-slices=5 / scenecut=40 / no-intra-refresh / ctu=64 / min-cu-size=8 / no-rect / no-amp / max-tu-size=32 / tu-inter-depth=1 / tu-intra-depth=1 / limit-tu=0 / rdoq-level=0 / dynamic-rd=0.00 / no-ssim-rd / signhide / no-tskip / nr-intra=0 / nr-inter=0 / no-constrained-intra / no-strong-intra-smoothing / max-merge=2 / limit-refs=3 / no-limit-modes / me=1 / subme=2 / merange=57 / temporal-mvp / weightp / no-weightb / no-analyze-src-pics / deblock=0:0 / no-sao / no-sao-non-deblock / rd=3 / no-early-skip / rskip / no-fast-intra / no-tskip-fast / no-cu-lossless / no-b-intra / no-splitrd-skip / rdpenalty=0 / psy-rd=0.00 / psy-rdoq=0.00 / no-rd-refine / analysis-reuse-mode=0 / no-lossless / cbqpoffs=0 / crqpoffs=0 / rc=crf / crf=23.0 / qcomp=0.60 / qpstep=4 / stats-write=0 / stats-read=0 / ipratio=1.40 / pbratio=1.30 / aq-mode=1 / aq-strength=0.00 / cutree / zone-count=0 / no-strict-cbr / qg-size=32 / no-rc-grain / qpmax=69 / qpmin=0 / no-const-vbv / sar=1 / overscan=0 / videoformat=5 / range=0 / colorprim=1 / transfer=1 / colormatrix=1 / chromaloc=0 / display-window=0 / max-cll=0,0 / min-luma=0 / max-luma=255 / log2-max-poc-lsb=8 / vui-timing-info / vui-hrd-info / slices=1 / no-opt-qp-pps / no-opt-ref-list-length-pps / no-multi-pass-opt-rps / scenecut-bias=0.05 / no-opt-cu-delta-qp / no-aq-motion / no-hdr / no-hdr-opt / no-dhdr10-opt / analysis-reuse-level=5 / scale-factor=0 / refine-intra=0 / refine-inter=0 / refine-mv=0 / no-limit-sao / ctu-info=0 / no-lowpass-dct / refine-mv-type=0 / copy-pic=1
Default                                  : Yes
Forced                                   : No
DURATION                                 : 01:45:36.042000000
NUMBER_OF_FRAMES                         : 152065
NUMBER_OF_BYTES                          : 572757879
_STATISTICS_WRITING_APP                  : mkvmerge v10.0.0 ('To Drown In You') 64bit
_STATISTICS_WRITING_DATE_UTC             : 2018-12-21 01:18:56
_STATISTICS_TAGS                         : BPS DURATION NUMBER_OF_FRAMES NUMBER_OF_BYTES

Audio #1
ID                                       : 2
Format                                   : AC-3
Format/Info                              : Audio Coding 3
Mode extension                           : CM (complete main)
Format settings, Endianness              : Big
Codec ID                                 : A_AC3
Duration                                 : 1h 45mn
Bit rate mode                            : Constant
Bit rate                                 : 384 Kbps
Channel(s)                               : 6 channels
Channel positions                        : Front: L C R, Side: L R, LFE
Sampling rate                            : 48.0 KHz
Bit depth                                : 16 bits
Compression mode                         : Lossy
Stream size                              : 290 MiB (26%)
Title                                    : Surround
Language                                 : German
Default                                  : Yes
Forced                                   : No
DURATION                                 : 01:45:36.032000000
NUMBER_OF_FRAMES                         : 198001
NUMBER_OF_BYTES                          : 304129536
_STATISTICS_WRITING_APP                  : mkvmerge v10.0.0 ('To Drown In You') 64bit
_STATISTICS_WRITING_DATE_UTC             : 2018-12-21 01:18:56
_STATISTICS_TAGS                         : BPS DURATION NUMBER_OF_FRAMES NUMBER_OF_BYTES

Audio #2
ID                                       : 3
Format                                   : AC-3
Format/Info                              : Audio Coding 3
Mode extension                           : CM (complete main)
Format settings, Endianness              : Big
Codec ID                                 : A_AC3
Duration                                 : 1h 45mn
Bit rate mode                            : Constant
Bit rate                                 : 384 Kbps
Channel(s)                               : 6 channels
Channel positions                        : Front: L C R, Side: L R, LFE
Sampling rate                            : 48.0 KHz
Bit depth                                : 16 bits
Compression mode                         : Lossy
Stream size                              : 290 MiB (26%)
Title                                    : Surround
Language                                 : English
Default                                  : No
Forced                                   : No
DURATION                                 : 01:45:36.032000000
NUMBER_OF_FRAMES                         : 198001
NUMBER_OF_BYTES                          : 304129536
_STATISTICS_WRITING_APP                  : mkvmerge v10.0.0 ('To Drown In You') 64bit
_STATISTICS_WRITING_DATE_UTC             : 2018-12-21 01:18:56
_STATISTICS_TAGS                         : BPS DURATION NUMBER_OF_FRAMES NUMBER_OF_BYTES


Download:
Share Online Share OnlineShare OnlineShare Online
 

Kommentare