HD-AREA wünscht Euch eine besinnliche Weihnachtszeit ;)

DNS SERVER AENDERNum der staatlichen Zensur zu umgehen. Sollten wir von eurem Provider geseprrt werden, nutzt den TOR BROWSER oder ändert euren DNS SERVER.

Filmwünsche können bei uns im Forum abgegeben werden

Wir Speichern Nicht




 
 
 
Top Releases
Smallfoot.Ein.eisigartiges.A...
Smallfoot.Ein.eisigartiges.A...
Smallfoot.Ein.eisigartiges.A...
Hubert.und.Staller.Eine.scho...
Hubert.und.Staller.Eine.scho...
Hubert.und.Staller.Eine.scho...
Bird.Box.Schliesse.deine.Aug...
Bird.Box.Schliesse.deine.Aug...
Halloween.German.DL.AC3.Dubb...
Halloween.German.DL.AC3.Dubb...

Cinedubs
Aquaman.2018.GERMAN.AC3.MD.7...
Bad.Spies.German.DL.AC3.Dubb...
Bad.Spies.German.DL.AC3.Dubb...
Bad.Times.at.the.El.Royale.G...
Bad.Times.at.the.El.Royale.G...
The.Guilty.German.DL.AC3.Dub...
The.Guilty.German.DL.AC3.Dub...
Johnny.English.Man.lebt.nur....
Johnny.English.Man.lebt.nur....
Johnny.English.Man.lebt.nur....

Neuerscheinungen 2017-18
Spinning.Man.Im.Dunkel.deine...
Amores.perros.2000.German.10...
Predator.Upgrade.2018.German...
Predator.Upgrade.2018.German...
Wilde.Kraeuter.2018.German.1...
Wilde.Kraeuter.2018.German.7...
Spinning.Man.Im.Dunkel.deine...
Spinning.Man.Im.Dunkel.deine...
They.Came.Together.2014.MULT...
The.Darkest.Minds.2018.MULTI...

XXX
ReadyOrNotHereICum.18.12.12....
Only-Opaques.17.06.26.Sophie...
RealWifeStories.18.12.11.Eva...
Submissived.18.12.10.Scarlet...
ProducersFun.18.03.25.Krissy...
LaurenPhillips.17.09.29.Carm...
Stunning18.18.12.10.Borya.E....
LaurenPhillips.17.07.07.How....
Spizoo.18.12.12.Sizi.Sev.Squ...
Nubiles.18.12.12.Elina.De.Le...
LaurenPhillips.17.09.22.Dres...
LaurenPhillips.17.09.15.Ravi...
Only-Opaques.17.08.03.Asha.E...
RKPrime.18.12.10.Stella.Raee...
SpyFam.18.12.10.Hannah.Hawth...
SexArt.18.12.12.Shrima.Malat...
Nubiles.18.12.11.Amber.Serra...
ProducersFun.18.08.04.Blair....
Nubiles.18.12.10.Dominka.Jul...
ProducersFun.18.03.20.Sophia...

3D
Smallfoot.3D.2018.COMPLETE.B...
Smallfoot.Ein.eisigartiges.A...
Skyscraper.3D.2018.German.DL...
Meg.3D.2018.MULTi.COMPLETE.B...
Meg.3D.2018.German.DL.1080p....
Gans.im.Glueck.3D.2018.MULTi...
The.Art.of.Flight.3D.2011.Ge...
The.End.Of.The.World.3D.2010...
The.First.Avenger.Civil.War....
Die.Unglaublichen.2.2018.3D....
Skyscraper.3D.2018.MULTi.COM...
Ant-Man.And.The.Wasp.3D.2018...
Ant.Man.and.the.Wasp.3D.2018...
Die.Unglaublichen.2.3D.2018....
Die.Unglaublichen.2.2018.3D....

Old_Stuff
Akte.X.S05.German.DTS.DL.108...
Akte.X.S04.German.DTS.DL.108...
Akte.X.S03.German.DTS.DL.108...
Dunkirk.1958.COMPLETE.BLURAY...
Das.Wunder.von.Manhattan.199...
The.Amazing.Spiderman.2.Rise...
Rise.of.the.Predator.2014.Ge...
Detective.Dee.und.das.Geheim...
Detective.Dee.Und.Der.Fluch....
Ghost.Rider.Spirit.of.Vengea...
Species.IV.Das.Erwachen.2007...
Species.IV.Das.Erwachen.2007...
Hotel.Transsilvanien.2012.Ge...
The.Dead.2010.German.DL.1080...
The.Dead.2.India.2013.German...

Filme
I.Still.See.You.Sie.lassen.d...
Monster.Hunt.2.2018.German.D...
Leanders.letzte.Reise.2017.G...
Leanders.letzte.Reise.2017.G...
Shapeshifter.2018.German.DL....
Mohawk.2017.German.DL.1080p....
Frankensteins.Kampf.gegen.di...
Frankensteins.Kampf.gegen.di...
Amores.perros.2000.German.72...
2.ungleiche.Freunde.2005.Ger...
Animal.House.1978.German.DL....
Citadel.Wo.das.Boese.wohnt.2...
Ein.ewiger.Kampf.Leben.und.K...
Ein.ewiger.Kampf.Leben.und.K...
Beziehungsweise.New.York.201...
Man.nennt.mich.Bruce.1982.AM...
The.Happy.Prince.2018.German...
The.Happy.Prince.2018.German...
The.Happy.Prince.2018.German...
Goldfinger.1964.2160to1080p....
Ein.Lied.in.Gottes.Ohr.2017....
Mona.Lisas.Laecheln.2003.Ger...
Spinning.Man.Im.Dunkel.deine...
La.Femme.Nikita.1990.German....

 
 
Smallfoot.Ein.eisigartiges.Abenteuer.2018.German.720p.BluRay.x264-DETAiLS

Jahr: 2018
Genre: Animation, Komödie
Sprache: Deutsch DTS
Laufzeit: 1h 36mn
Bitrate: 3 997 Kbps
Format: MKV
Größe: 2.69 GiB
Release:

Beschreibung:

Der junge Migo (Originalstimme: Channing Tatum / deutsche Stimme: Kostja Ullmann) ist ein aufgeweckter, ehrlicher und treuer Yeti, der sein Herz am rechten Fleck trägt. Er hat immer das geglaubt, was ihm in seinem Dorf beigebracht wurde. Doch als er ein Wesen sieht – einen Menschen – das angeblich nicht existiert, wird sein gesamtes Leben und alles, woran er jemals glaubte, auf den Kopf gestellt. Niemand in der Gemeinschaft nimmt Migo seine Entdeckung ab. Lediglich seine Freundin Meechee (Zendaya / Aylin Tezel), die mit ihrer Neugier ständig Erkundungen macht, glaubt ihm. Mit einer Organisation hat sie bereits Beweise dafür gesammelt, dass Menschen, sogenannte „Smallfoods“, existieren. Dennoch begibt sich Migo alleine auf die Suche nach dem gesichteten Menschen, der Percy heißt und bisher die Existenz von Yetis anzweifelte…



Complete name                            : Smallfoot.Ein.eisigartiges.Abenteuer.2018.German.720p.BluRay.x264-DETAiLS.mkv
Format                                   : Matroska
Format version                           : Version 4 / Version 2
File size                                : 2.69 GiB
Duration                                 : 1h 36mn
Overall bit rate                         : 3 997 Kbps
Encoded date                             : UTC 2018-12-22 06:30:34
Writing application                      : mkvmerge v23.0.0 ('The Bride Said No') 64-bit
Writing library                          : libebml v1.3.6 + libmatroska v1.4.9
DURATION                                 : 00:55:35.499000000
NUMBER_OF_FRAMES                         : 6
NUMBER_OF_BYTES                          : 126
_STATISTICS_WRITING_APP                  : mkvmerge v23.0.0 ('The Bride Said No') 64-bit
_STATISTICS_WRITING_DATE_UTC             : 2018-12-22 06:30:34
_STATISTICS_TAGS                         : BPS DURATION NUMBER_OF_FRAMES NUMBER_OF_BYTES

Video
ID                                       : 1
Format                                   : AVC
Format/Info                              : Advanced Video Codec
Format profile                           : High@L4.1
Format settings, CABAC                   : Yes
Format settings, ReFrames                : 5 frames
Codec ID                                 : V_MPEG4/ISO/AVC
Duration                                 : 1h 36mn
Bit rate                                 : 2 409 Kbps
Width                                    : 1 280 pixels
Height                                   : 536 pixels
Display aspect ratio                     : 2.40:1
Frame rate mode                          : Constant
Frame rate                               : 23.976 fps
Color space                              : YUV
Chroma subsampling                       : 4:2:0
Bit depth                                : 8 bits
Scan type                                : Progressive
Bits/(Pixel*Frame)                       : 0.146
Stream size                              : 1.62 GiB (60%)
Writing library                          : x264 core 157 r2935 545de2f
Encoding settings                        : cabac=1 / ref=5 / deblock=1:-3:-3 / analyse=0x3:0x133 / me=umh / subme=7 / psy=1 / psy_rd=1.00:0.15 / mixed_ref=1 / me_range=16 / chroma_me=1 / trellis=1 / 8x8dct=1 / cqm=0 / deadzone=21,11 / fast_pskip=0 / chroma_qp_offset=-3 / threads=17 / lookahead_threads=2 / sliced_threads=0 / nr=0 / decimate=1 / interlaced=0 / bluray_compat=0 / constrained_intra=0 / bframes=3 / b_pyramid=2 / b_adapt=2 / b_bias=0 / direct=3 / weightb=1 / open_gop=0 / weightp=2 / keyint=240 / keyint_min=24 / scenecut=40 / intra_refresh=0 / rc_lookahead=50 / rc=crf / mbtree=1 / crf=20.0 / qcomp=0.60 / qpmin=0 / qpmax=69 / qpstep=4 / ip_ratio=1.40 / aq=1:1.00
Language                                 : English
Default                                  : Yes
Forced                                   : No
DURATION                                 : 01:36:17.772000000
NUMBER_OF_FRAMES                         : 138528
NUMBER_OF_BYTES                          : 1795345810
_STATISTICS_WRITING_APP                  : mkvmerge v23.0.0 ('The Bride Said No') 64-bit
_STATISTICS_WRITING_DATE_UTC             : 2018-12-22 06:30:34
_STATISTICS_TAGS                         : BPS DURATION NUMBER_OF_FRAMES NUMBER_OF_BYTES

Audio
ID                                       : 2
Format                                   : DTS
Format/Info                              : Digital Theater Systems
Mode                                     : 16
Format settings, Endianness              : Big
Codec ID                                 : A_DTS
Duration                                 : 1h 36mn
Bit rate mode                            : Constant
Bit rate                                 : 1 509 Kbps
Channel(s)                               : 6 channels
Channel positions                        : Front: L C R, Side: L R, LFE
Sampling rate                            : 48.0 KHz
Bit depth                                : 24 bits
Compression mode                         : Lossy
Stream size                              : 1.01 GiB (38%)
Language                                 : German
Default                                  : Yes
Forced                                   : No

Text
ID                                       : 3
Format                                   : UTF-8
Codec ID                                 : S_TEXT/UTF8
Codec ID/Info                            : UTF-8 Plain Text
Language                                 : German
Default                                  : Yes
Forced                                   : Yes


Download:
Share Online Share OnlineShare OnlineShare Online
 

Kommentare