HD-AREA wünscht Euch eine besinnliche Weihnachtszeit ;)

DNS SERVER AENDERNum der staatlichen Zensur zu umgehen. Sollten wir von eurem Provider geseprrt werden, nutzt den TOR BROWSER oder ändert euren DNS SERVER.

Filmwünsche können bei uns im Forum abgegeben werden

Wir Speichern Nicht




 
 
 
Top Releases
Bird.Box.Schliesse.deine.Aug...
Bird.Box.Schliesse.deine.Aug...
Halloween.German.DL.AC3.Dubb...
Halloween.German.DL.AC3.Dubb...
The.Nun.German.DL.1080p.BluR...
The.Nun.German.DL.720p.BluRa...
Venom.German.DL.AC3.Dubbed.1...
Venom.German.DL.AC3.Dubbed.7...
Wer.war.Hitler.2017.GERMAN.D...
Wer.war.Hitler.2017.GERMAN.D...

Cinedubs
Bad.Spies.German.DL.AC3.Dubb...
Bad.Spies.German.DL.AC3.Dubb...
Bad.Times.at.the.El.Royale.G...
Bad.Times.at.the.El.Royale.G...
The.Guilty.German.DL.AC3.Dub...
The.Guilty.German.DL.AC3.Dub...
Johnny.English.Man.lebt.nur....
Johnny.English.Man.lebt.nur....
Johnny.English.Man.lebt.nur....
Phantastische.Tierwesen.Grin...

Neuerscheinungen 2017-18
Spinning.Man.Im.Dunkel.deine...
Spinning.Man.Im.Dunkel.deine...
They.Came.Together.2014.MULT...
The.Darkest.Minds.2018.MULTI...
Wer.war.Hitler.2017.GERMAN.D...
The.Nun.2018.MULTi.COMPLETE....
Meg.The.Meg.2018.MULTi.COMPL...
Ultimate.Justice.Toeten.oder...
Spinning.Man.Im.Dunkel.deine...
The.Crying.Game.1992.MULTi.C...

XXX
ReadyOrNotHereICum.18.12.12....
Only-Opaques.17.06.26.Sophie...
RealWifeStories.18.12.11.Eva...
Submissived.18.12.10.Scarlet...
ProducersFun.18.03.25.Krissy...
LaurenPhillips.17.09.29.Carm...
Stunning18.18.12.10.Borya.E....
LaurenPhillips.17.07.07.How....
Spizoo.18.12.12.Sizi.Sev.Squ...
Nubiles.18.12.12.Elina.De.Le...
LaurenPhillips.17.09.22.Dres...
LaurenPhillips.17.09.15.Ravi...
Only-Opaques.17.08.03.Asha.E...
RKPrime.18.12.10.Stella.Raee...
SpyFam.18.12.10.Hannah.Hawth...
SexArt.18.12.12.Shrima.Malat...
Nubiles.18.12.11.Amber.Serra...
ProducersFun.18.08.04.Blair....
Nubiles.18.12.10.Dominka.Jul...
ProducersFun.18.03.20.Sophia...

3D
Skyscraper.3D.2018.German.DL...
Meg.3D.2018.MULTi.COMPLETE.B...
Meg.3D.2018.German.DL.1080p....
Gans.im.Glueck.3D.2018.MULTi...
The.Art.of.Flight.3D.2011.Ge...
The.End.Of.The.World.3D.2010...
The.First.Avenger.Civil.War....
Die.Unglaublichen.2.2018.3D....
Skyscraper.3D.2018.MULTi.COM...
Ant-Man.And.The.Wasp.3D.2018...
Ant.Man.and.the.Wasp.3D.2018...
Die.Unglaublichen.2.3D.2018....
Die.Unglaublichen.2.2018.3D....
Die.Unglaublichen.2.2018.3D....
Sharknado.6.The.Last.One.3D....

Old_Stuff
Akte.X.S05.German.DTS.DL.108...
Akte.X.S04.German.DTS.DL.108...
Akte.X.S03.German.DTS.DL.108...
Dunkirk.1958.COMPLETE.BLURAY...
Das.Wunder.von.Manhattan.199...
The.Amazing.Spiderman.2.Rise...
Rise.of.the.Predator.2014.Ge...
Detective.Dee.und.das.Geheim...
Detective.Dee.Und.Der.Fluch....
Ghost.Rider.Spirit.of.Vengea...
Species.IV.Das.Erwachen.2007...
Species.IV.Das.Erwachen.2007...
Hotel.Transsilvanien.2012.Ge...
The.Dead.2010.German.DL.1080...
The.Dead.2.India.2013.German...

Filme
Beziehungsweise.New.York.201...
Man.nennt.mich.Bruce.1982.AM...
The.Happy.Prince.2018.German...
The.Happy.Prince.2018.German...
The.Happy.Prince.2018.German...
Goldfinger.1964.2160to1080p....
Ein.Lied.in.Gottes.Ohr.2017....
Mona.Lisas.Laecheln.2003.Ger...
Spinning.Man.Im.Dunkel.deine...
La.Femme.Nikita.1990.German....
Borgia.S01-S03.COMPLETE.Germ...
Nurse.Betty.2000.German.AC3D...
Die.Conners.S01.German.DD51....
Die.Conners.S01.German.DD51....
Absturz.in.der.Wildnis.aka.D...
Ralph.reichts.2012.German.Du...
MADIBA.S01.COMPLETE.German.D...
MADIBA.S01.COMPLETE.German.D...
Diablero.S01.COMPLETE.GERMAN...
Halloween.2018.German.AC3.21...
Inkubus.Stell.dich.deinem.Da...
Schmutzige.Dollars.1947.Uncu...
Ein.toedlicher.Traum.Somewhe...
American.Psycho.2000.UNRATED...

 
 
Bird.Box.Schliesse.deine.Augen.2018.German.DL.720p.WEB.x264.iNTERNAL-BiGiNT

Jahr: 2018
Genre: Drama, Horror, Sci-Fi
Sprache: Deutsch AC3 | Englisch AC3
Laufzeit: 2h 4mn
Bitrate: 3 387 Kbps
Format: MKV
Größe: 2.94 GiB
Release:

Beschreibung:

Ein mysteriöser Schrecken hat die Welt heimgesucht. Es handelt sich dabei um eine Art Monster, das seine Opfer dazu bringt, sich selbst umzubringen – einzig und allein indem man es ansieht. In diesem Moment wird man nämlich mit seinen schlimmsten Ängsten konfrontiert. Um sich und ihre zwei Kinder vor diesem grausamen Schicksal zu bewahren, muss sich Malorie (Sandra Bullock) mit ihnen in dieser in Angst und Schrecken versetzten Welt durchkämpfen. Und zwar mit verbundenen Augen, um dem unheimlichen Wesen auch ja keine Angriffsfläche zu bieten. Als dann plötzlich das Telefon klingelt und ein unbekannter Anrufer auf einen sicheren Ort verweist, der nur ein paar Meilen den naheliegenden Fluss hinunter liegen soll, besteigt Malorie mit ihren Kindern kurzerhand ein kleines Boot und legt ab, natürlich noch immer ohne Augenlicht.



Complete name                            : bird.box.schliesse.deine.augen.2018.german.dl.720p.web.x264.internal-bigint.mkv
Format                                   : Matroska
Format version                           : Version 4 / Version 2
File size                                : 2.94 GiB
Duration                                 : 2h 4mn
Overall bit rate mode                    : Variable
Overall bit rate                         : 3 387 Kbps
Encoded date                             : UTC 2018-12-21 13:42:11
Writing application                      : mkvmerge v22.0.0 ('At The End Of The World') 64-bit
Writing library                          : libebml v1.3.5 + libmatroska v1.4.8
DURATION                                 : 01:59:10.167000000
NUMBER_OF_FRAMES                         : 1727
NUMBER_OF_BYTES                          : 54817
_STATISTICS_WRITING_APP                  : mkvmerge v22.0.0 ('At The End Of The World') 64-bit
_STATISTICS_WRITING_DATE_UTC             : 2018-12-21 13:42:11
_STATISTICS_TAGS                         : BPS DURATION NUMBER_OF_FRAMES NUMBER_OF_BYTES

Video
ID                                       : 1
Format                                   : AVC
Format/Info                              : Advanced Video Codec
Format profile                           : Main@L3.1
Format settings, CABAC                   : Yes
Format settings, ReFrames                : 3 frames
Codec ID                                 : V_MPEG4/ISO/AVC
Duration                                 : 2h 4mn
Bit rate mode                            : Variable
Bit rate                                 : 2 610 Kbps
Maximum bit rate                         : 3 915 Kbps
Width                                    : 1 280 pixels
Height                                   : 720 pixels
Display aspect ratio                     : 16:9
Frame rate mode                          : Constant
Frame rate                               : 24.000 fps
Color space                              : YUV
Chroma subsampling                       : 4:2:0
Bit depth                                : 8 bits
Scan type                                : Progressive
Bits/(Pixel*Frame)                       : 0.118
Stream size                              : 2.16 GiB (73%)
Writing library                          : x264 core 148 r2715 7e75228
Encoding settings                        : cabac=1 / ref=3 / deblock=1:0:0 / analyse=0x1:0x111 / me=umh / subme=10 / psy=1 / psy_rd=1.00:0.00 / mixed_ref=1 / me_range=24 / chroma_me=1 / trellis=2 / 8x8dct=0 / cqm=0 / deadzone=21,11 / fast_pskip=1 / chroma_qp_offset=-2 / threads=8 / lookahead_threads=1 / sliced_threads=0 / nr=0 / decimate=1 / interlaced=0 / bluray_compat=0 / stitchable=1 / constrained_intra=0 / bframes=2 / b_pyramid=0 / b_adapt=2 / b_bias=0 / direct=3 / weightb=1 / open_gop=0 / weightp=2 / keyint=48 / keyint_min=25 / scenecut=0 / intra_refresh=0 / rc_lookahead=48 / rc=2pass / mbtree=1 / bitrate=2610 / ratetol=1.0 / qcomp=0.50 / qpmin=6 / qpmax=51 / qpstep=4 / cplxblur=20.0 / qblur=0.5 / vbv_maxrate=3915 / vbv_bufsize=5220 / nal_hrd=vbr / filler=0 / ip_ratio=1.40 / aq=1:1.00
Default                                  : Yes
Forced                                   : No

Audio #1
ID                                       : 2
Format                                   : AC-3
Format/Info                              : Audio Coding 3
Mode extension                           : CM (complete main)
Format settings, Endianness              : Big
Codec ID                                 : A_AC3
Duration                                 : 2h 4mn
Bit rate mode                            : Constant
Bit rate                                 : 384 Kbps
Channel(s)                               : 6 channels
Channel positions                        : Front: L C R, Side: L R, LFE
Sampling rate                            : 48.0 KHz
Bit depth                                : 16 bits
Compression mode                         : Lossy
Stream size                              : 342 MiB (11%)
Language                                 : German
Default                                  : Yes
Forced                                   : No

Audio #2
ID                                       : 3
Format                                   : E-AC-3
Format/Info                              : Audio Coding 3
Format settings, Endianness              : Big
Codec ID                                 : A_EAC3
Duration                                 : 2h 4mn
Bit rate mode                            : Constant
Bit rate                                 : 448 Kbps
Channel(s)                               : 6 channels
Channel positions                        : Front: L C R, Side: L R, LFE
Sampling rate                            : 48.0 KHz
Compression mode                         : Lossy
Stream size                              : 399 MiB (13%)
Language                                 : English
Default                                  : No
Forced                                   : No

Text #1
ID                                       : 4
Format                                   : UTF-8
Codec ID                                 : S_TEXT/UTF8
Codec ID/Info                            : UTF-8 Plain Text
Title                                    : Forced
Language                                 : German
Default                                  : Yes
Forced                                   : Yes

Text #2
ID                                       : 5
Format                                   : UTF-8
Codec ID                                 : S_TEXT/UTF8
Codec ID/Info                            : UTF-8 Plain Text
Title                                    : Deutsch
Language                                 : German
Default                                  : No
Forced                                   : No

Text #3
ID                                       : 6
Format                                   : UTF-8
Codec ID                                 : S_TEXT/UTF8
Codec ID/Info                            : UTF-8 Plain Text
Title                                    : Englisch (CC)
Language                                 : English
Default                                  : No
Forced                                   : No


Download:
Share Online Share OnlineShare OnlineShare Online
 

Kommentare