HD-AREA wünscht Euch eine besinnliche Weihnachtszeit ;)

DNS SERVER AENDERNum der staatlichen Zensur zu umgehen. Sollten wir von eurem Provider geseprrt werden, nutzt den TOR BROWSER oder ändert euren DNS SERVER.

Filmwünsche können bei uns im Forum abgegeben werden

Wir Speichern Nicht




 
 
 
Top Releases
The.Nun.German.DL.1080p.BluR...
The.Nun.German.DL.720p.BluRa...
Venom.German.DL.AC3.Dubbed.1...
Venom.German.DL.AC3.Dubbed.7...
Wer.war.Hitler.2017.GERMAN.D...
Wer.war.Hitler.2017.GERMAN.D...
Wer.war.Hitler.2017.GERMAN.D...
Hubert.und.Staller.-.Eine.sc...
Hotel.Transsilvanien.3.Ein.M...
The.Happy.Prince.2018.German...

Cinedubs
Bad.Spies.German.DL.AC3.Dubb...
Bad.Spies.German.DL.AC3.Dubb...
Bad.Times.at.the.El.Royale.G...
Bad.Times.at.the.El.Royale.G...
The.Guilty.German.DL.AC3.Dub...
The.Guilty.German.DL.AC3.Dub...
Johnny.English.Man.lebt.nur....
Johnny.English.Man.lebt.nur....
Johnny.English.Man.lebt.nur....
Phantastische.Tierwesen.Grin...

Neuerscheinungen 2017-18
Spinning.Man.Im.Dunkel.deine...
Spinning.Man.Im.Dunkel.deine...
They.Came.Together.2014.MULT...
The.Darkest.Minds.2018.MULTI...
Wer.war.Hitler.2017.GERMAN.D...
The.Nun.2018.MULTi.COMPLETE....
Meg.The.Meg.2018.MULTi.COMPL...
Ultimate.Justice.Toeten.oder...
Spinning.Man.Im.Dunkel.deine...
The.Crying.Game.1992.MULTi.C...

XXX
PlayboyPlus.18.12.11.Adel.Mo...
PervMom.18.10.11.Britney.Amb...
Only-Opaques.17.09.19.Jo.E.X...
Passion-HD.18.12.12.Hime.Mar...
PornMegaLoad.18.12.11.Gettin...
PervMom.18.10.25.Summer.Hart...
Only-Opaques.17.10.07.Natash...
PornMegaLoad.18.12.10.Karen....
PlumperPass.18.12.12.Danica....
PlayboyPlus.18.12.10.Anetta....
Only-Opaques.17.09.10.Daisy....
PervMom.18.09.25.Sovereign.S...
Only-Opaques.17.09.25.Cassie...
Penthouse.The.Art.Of.Seducti...
Orgasm.Ningyou.XXX.1080p.WEB...
PlumperPass.18.12.10.Angel.D...
Only-Opaques.17.10.24.Grace....
Only-Opaques.17.10.01.Nikki....
Only-Opaques.17.08.27.Lycia....
PornstarPlatinum.18.12.10.Jo...

3D
Skyscraper.3D.2018.German.DL...
Meg.3D.2018.MULTi.COMPLETE.B...
Meg.3D.2018.German.DL.1080p....
Gans.im.Glueck.3D.2018.MULTi...
The.Art.of.Flight.3D.2011.Ge...
The.End.Of.The.World.3D.2010...
The.First.Avenger.Civil.War....
Die.Unglaublichen.2.2018.3D....
Skyscraper.3D.2018.MULTi.COM...
Ant-Man.And.The.Wasp.3D.2018...
Ant.Man.and.the.Wasp.3D.2018...
Die.Unglaublichen.2.3D.2018....
Die.Unglaublichen.2.2018.3D....
Die.Unglaublichen.2.2018.3D....
Sharknado.6.The.Last.One.3D....

Old_Stuff
Akte.X.S05.German.DTS.DL.108...
Akte.X.S04.German.DTS.DL.108...
Akte.X.S03.German.DTS.DL.108...
Dunkirk.1958.COMPLETE.BLURAY...
Das.Wunder.von.Manhattan.199...
The.Amazing.Spiderman.2.Rise...
Rise.of.the.Predator.2014.Ge...
Detective.Dee.und.das.Geheim...
Detective.Dee.Und.Der.Fluch....
Ghost.Rider.Spirit.of.Vengea...
Species.IV.Das.Erwachen.2007...
Species.IV.Das.Erwachen.2007...
Hotel.Transsilvanien.2012.Ge...
The.Dead.2010.German.DL.1080...
The.Dead.2.India.2013.German...

Filme
Man.nennt.mich.Bruce.1982.AM...
The.Happy.Prince.2018.German...
The.Happy.Prince.2018.German...
The.Happy.Prince.2018.German...
Goldfinger.1964.2160to1080p....
Ein.Lied.in.Gottes.Ohr.2017....
Mona.Lisas.Laecheln.2003.Ger...
Spinning.Man.Im.Dunkel.deine...
La.Femme.Nikita.1990.German....
Borgia.S01-S03.COMPLETE.Germ...
Nurse.Betty.2000.German.AC3D...
Die.Conners.S01.German.DD51....
Die.Conners.S01.German.DD51....
Absturz.in.der.Wildnis.aka.D...
Ralph.reichts.2012.German.Du...
MADIBA.S01.COMPLETE.German.D...
MADIBA.S01.COMPLETE.German.D...
Diablero.S01.COMPLETE.GERMAN...
Halloween.2018.German.AC3.21...
Inkubus.Stell.dich.deinem.Da...
Schmutzige.Dollars.1947.Uncu...
Ein.toedlicher.Traum.Somewhe...
American.Psycho.2000.UNRATED...
Just.Visiting.-.Mit.Vollgas....

 
 
The.Guilty.German.DL.AC3.Dubbed.720p.BluRay.x264-PsO

Jahr: 2018
Genre: Drama, Thriller
Sprache: Deutsch AC3
Laufzeit: 1h 25mn
Bitrate: 7 698 Kbps
Format: MKV
Größe: 4.60 GiB
Release:

Beschreibung:

Der ehemalige Polizist Asger Holm (Jakob Cedergren) arbeitet mittlerweile in einer Notrufzentrale. Eines Tages erhält er einen Anruf von der verängstigten Iben (Jessica Dinnage), die neben ihrem Entführer im Auto sitzt und so tut, als würde sie mit ihrer Tochter telefonieren. Asger will der entführten Frau unbedingt helfen, was aber übers Telefon gar nicht so leicht ist, denn schnell kommt der Entführer hinter Ibens Notruf und bricht die Verbindung ab. Nun beginnt für Asger ein Wettlauf gegen die Zeit. Dabei ist seine einzige Waffe das Telefon. Während er alles in seiner Macht stehende tut, um die Frau ausfindig zu machen, muss er bald feststellen, dass er es mit einem weitaus größeren Verbrechen zu tun hat, als anfangs angenommen…

 



Complete name                            : pso-guilty_bd.720p.mkv
Format                                   : Matroska
Format version                           : Version 4 / Version 2
File size                                : 4.60 GiB
Duration                                 : 1h 25mn
Overall bit rate                         : 7 698 Kbps
Encoded date                             : UTC 2018-12-21 00:57:55
Writing application                      : mkvmerge v8.3.0 ('Over the Horizon') 64bit
Writing library                          : libebml v1.3.1 + libmatroska v1.4.2
DURATION                                 : 01:20:59.760000000
NUMBER_OF_FRAMES                         : 1176
NUMBER_OF_BYTES                          : 31864
_STATISTICS_WRITING_APP                  : mkvmerge v8.3.0 ('Over the Horizon') 64bit
_STATISTICS_WRITING_DATE_UTC             : 2018-12-21 00:57:55
_STATISTICS_TAGS                         : BPS DURATION NUMBER_OF_FRAMES NUMBER_OF_BYTES

Video
ID                                       : 1
Format                                   : AVC
Format/Info                              : Advanced Video Codec
Format profile                           : High@L4.1
Format settings, CABAC                   : Yes
Format settings, ReFrames                : 5 frames
Codec ID                                 : V_MPEG4/ISO/AVC
Duration                                 : 1h 25mn
Bit rate                                 : 5 832 Kbps
Width                                    : 1 280 pixels
Height                                   : 536 pixels
Display aspect ratio                     : 2.40:1
Frame rate mode                          : Constant
Frame rate                               : 25.000 fps
Color space                              : YUV
Chroma subsampling                       : 4:2:0
Bit depth                                : 8 bits
Scan type                                : Progressive
Bits/(Pixel*Frame)                       : 0.340
Stream size                              : 3.38 GiB (73%)
Writing library                          : x264 core 157 r2935 545de2f
Encoding settings                        : cabac=1 / ref=5 / deblock=1:0:0 / analyse=0x3:0x113 / me=umh / subme=8 / psy=1 / psy_rd=1.00:0.00 / mixed_ref=1 / me_range=16 / chroma_me=1 / trellis=1 / 8x8dct=1 / cqm=0 / deadzone=21,11 / fast_pskip=1 / chroma_qp_offset=-2 / threads=17 / lookahead_threads=2 / sliced_threads=0 / nr=0 / decimate=1 / interlaced=0 / bluray_compat=0 / constrained_intra=0 / bframes=3 / b_pyramid=2 / b_adapt=2 / b_bias=0 / direct=3 / weightb=1 / open_gop=0 / weightp=2 / keyint=250 / keyint_min=25 / scenecut=40 / intra_refresh=0 / rc_lookahead=50 / rc=2pass / mbtree=1 / bitrate=5832 / ratetol=1.0 / qcomp=0.60 / qpmin=0 / qpmax=69 / qpstep=4 / cplxblur=20.0 / qblur=0.5 / ip_ratio=1.40 / aq=1:1.00
Language                                 : English
Default                                  : Yes
Forced                                   : No
DURATION                                 : 01:25:10.720000000
NUMBER_OF_FRAMES                         : 127768
NUMBER_OF_BYTES                          : 3724794801
_STATISTICS_WRITING_APP                  : mkvmerge v8.3.0 ('Over the Horizon') 64bit
_STATISTICS_WRITING_DATE_UTC             : 2018-12-21 00:57:55
_STATISTICS_TAGS                         : BPS DURATION NUMBER_OF_FRAMES NUMBER_OF_BYTES

Audio #1
ID                                       : 2
Format                                   : AC-3
Format/Info                              : Audio Coding 3
Mode extension                           : CM (complete main)
Format settings, Endianness              : Big
Codec ID                                 : A_AC3
Duration                                 : 1h 25mn
Bit rate mode                            : Constant
Bit rate                                 : 384 Kbps
Channel(s)                               : 6 channels
Channel positions                        : Front: L C R, Side: L R, LFE
Sampling rate                            : 48.0 KHz
Bit depth                                : 16 bits
Compression mode                         : Lossy
Delay relative to video                  : 18ms
Stream size                              : 235 MiB (5%)
Language                                 : German
Default                                  : No
Forced                                   : Yes

Audio #2
ID                                       : 3
Format                                   : DTS
Format/Info                              : Digital Theater Systems
Mode                                     : 16
Format settings, Endianness              : Big
Codec ID                                 : A_DTS
Duration                                 : 1h 25mn
Bit rate mode                            : Constant
Bit rate                                 : 1 509 Kbps
Channel(s)                               : 6 channels
Channel positions                        : Front: L C R, Side: L R, LFE
Sampling rate                            : 48.0 KHz
Bit depth                                : 24 bits
Compression mode                         : Lossy
Stream size                              : 923 MiB (20%)
Language                                 : Danish
Default                                  : Yes
Forced                                   : No

Text #1
ID                                       : 4
Format                                   : UTF-8
Codec ID                                 : S_TEXT/UTF8
Codec ID/Info                            : UTF-8 Plain Text
Language                                 : German
Default                                  : Yes
Forced                                   : Yes

Text #2
ID                                       : 5
Format                                   : UTF-8
Codec ID                                 : S_TEXT/UTF8
Codec ID/Info                            : UTF-8 Plain Text
Language                                 : German
Default                                  : No
Forced                                   : No


Download:
Share Online Share OnlineShare OnlineShare Online
 

Kommentare