HD-AREA wünscht Euch eine besinnliche Weihnachtszeit ;)

DNS SERVER AENDERNum der staatlichen Zensur zu umgehen. Sollten wir von eurem Provider geseprrt werden, nutzt den TOR BROWSER oder ändert euren DNS SERVER.

Filmwünsche können bei uns im Forum abgegeben werden

Wir Speichern Nicht




 
 
 
Top Releases
The.Hateful.8.2015.German.AC...
Der.Unsichtbare.Gast.2016.Ge...
BlacKkKlansman.2018.German.A...
Von.Loewen.und.Laemmern.2007...
Von.Loewen.und.Laemmern.2007...
Von.Loewen.und.Laemmern.2007...
Braven.2018.German.AC3.DL.10...
The.Last.Movie.Star.2017.DUA...
The.Infiltrator.2016.German....
The.Equalizer.2.2018.German....

Cinedubs
Phantastische.Tierwesen.Grin...
Phantastische.Tierwesen.Grin...
The.Guilty.2018.German.AC3D....
The.Guilty.2018.German.AC3D....
Aufbruch.zum.Mond.German.DL....
Aufbruch.zum.Mond.German.DL....
Night.School.2018.GERMAN.DL....
Night.School.2018.GERMAN.DL....
Gaensehaut.2.Gruseliges.Hall...
Gaensehaut.2.Gruseliges.Hall...

Neuerscheinungen 2017-18
They.Shall.Not.Grow.Old.2018...
Death.Kiss.2018.Uncut.German...
Pyewacket.Toedlicher.Fluch.2...
Leben.Und.Sterben.In.L.A.REM...
The.Running.Man.-.Limited.Co...
Alarmstufe.Rot.2.Under.Siege...
Egal.was.kommt.2018.GERMAN.D...
Occupation.2018.GERMAN.DL.10...
Campus.Killer.Das.Boese.Kehr...
Campus.Killer.Das.Boese.Kehr...

XXX
Cum4K.18.12.11.Ashly.Anderso...
DaneJones.18.12.11.Akasha.Co...
CherryPimps.18.12.10.Ana.Fox...
BigButtsLikeItBig.18.12.10.M...
ClubSeventeen.18.12.10.Foxxi...
BrazzersExxtra.18.12.11.Hone...
BrazzersExxtra.18.12.12.Bonn...
DigitalPlayground.18.12.12.E...
Blacked.18.12.11.Jia.Lissa.X...
ATKHairy.18.12.07.Lexa.XXX.1...
Bang.RealTeens.18.12.10.Sara...
DigitalPlayground.18.12.10.A...
ATKGirlfriends.18.12.12.Alex...
BangBros18.18.12.11.Aidra.Fo...
ATKHairy.18.12.09.Selesta.XX...
1By-Day.18.12.12.Amber.Jayne...
ATKHairy.18.12.08.Isabel.Ste...
ATKHairy.18.12.10.Bella.Dahl...
1000Facials.18.12.10.Scarlet...
AnalTeenAngels.18.12.11.Stel...

3D
Meg.3D.2018.MULTi.COMPLETE.B...
Meg.3D.2018.German.DL.1080p....
Gans.im.Glueck.3D.2018.MULTi...
The.Art.of.Flight.3D.2011.Ge...
The.End.Of.The.World.3D.2010...
The.First.Avenger.Civil.War....
Die.Unglaublichen.2.2018.3D....
Skyscraper.3D.2018.MULTi.COM...
Ant-Man.And.The.Wasp.3D.2018...
Ant.Man.and.the.Wasp.3D.2018...
Die.Unglaublichen.2.3D.2018....
Die.Unglaublichen.2.2018.3D....
Die.Unglaublichen.2.2018.3D....
Sharknado.6.The.Last.One.3D....
Deep.Kleine.Helden.der.Tiefs...

Old_Stuff
Akte.X.S04.German.DTS.DL.108...
Akte.X.S03.German.DTS.DL.108...
Dunkirk.1958.COMPLETE.BLURAY...
Das.Wunder.von.Manhattan.199...
The.Amazing.Spiderman.2.Rise...
Rise.of.the.Predator.2014.Ge...
Detective.Dee.und.das.Geheim...
Detective.Dee.Und.Der.Fluch....
Ghost.Rider.Spirit.of.Vengea...
Species.IV.Das.Erwachen.2007...
Species.IV.Das.Erwachen.2007...
Hotel.Transsilvanien.2012.Ge...
The.Dead.2010.German.DL.1080...
The.Dead.2.India.2013.German...
Britney.Spears.Live.The.Femm...

Filme
Requiem.for.a.Killer.2011.Ge...
Resident.Evil.Damnation.2012...
The.Lost.Boys.1987.German.AC...
Respire.Halt.den.Atem.an.201...
Restitution.2011.German.DL.1...
Resurrection.County.2008.Ger...
Incubus.Moerderische.Traeume...
Hachiko.Eine.wunderbare.Freu...
Ohne.Schuld.2008.German.AC3....
Untraceable.2008.German.AC3....
Willkommen.im.Sueden.2010.Ge...
Snatch.S02.German.DL.DUBBED....
Snatch.S02.German.DL.DUBBED....
12.Monkeys.S03.COMPLETE.GERM...
12.Monkeys.S03.COMPLETE.GERM...
Criminal.Minds.S13.COMPLETE....
Once.Upon.a.Time.S07.German....
Once.Upon.a.Time.S07.German....
Ice.S02.GERMAN.DL.1080p.HDTV...
Ice.S02.GERMAN.DL.720p.HDTV....
Die.purpurnen.Fluesse.The.Cr...
Quantico.S03.GERMAN.DL.DUBBE...
Quantico.S03.GERMAN.DUBBED.7...
Venom.2018.German.AC3D.5.1.D...

 
 
Requiem.for.a.Killer.2011.German.DL.1080p.BluRay.x264-ROOR

Jahr: 2011
Genre: Krimi, Thriller
Sprache: Deutsch DTS
Laufzeit: 1h 32mn
Bitrate: 11.4 Mbps
Format: MKV
Größe: 7.36 GiB
Release:

Beschreibung:

Lucrece würde ihrer achtjährigen Tochter gerne mal sagen, was sie beruflich so macht. Weil das nie möglich ist, soll dies nun ihr letzter Einsatz sein als Profikiller für die undurchsichtige Privatagentur. Ein Opernsänger aus England muss dran glauben, weil er sein Grundstück nicht verkaufen mag, durch das ein Energiekonzern eine Pipeline legen will. Lucrece gibt sich zu diesem Zwecke als Solistin aus, was auch recht nahe liegt, da sie sich schon seit längerem in der Freizeit dem Gesang widmet. Doch der Auftrag entpuppt sich komplizierter als erwartet.



Complete name                            : roor-requiem_for_a_killer-1080p.mkv
Format                                   : Matroska
Format version                           : Version 2
File size                                : 7.36 GiB
Duration                                 : 1h 32mn
Overall bit rate                         : 11.4 Mbps
Encoded date                             : UTC 2012-02-04 04:01:40
Writing application                      : mkvmerge v5.1.0 ('And so it goes') built on Nov 28 2011 23:58:28
Writing library                          : libebml v1.2.3 + libmatroska v1.3.0

Video
ID                                       : 1
Format                                   : AVC
Format/Info                              : Advanced Video Codec
Format profile                           : High@L4.1
Format settings, CABAC                   : Yes
Format settings, ReFrames                : 5 frames
Codec ID                                 : V_MPEG4/ISO/AVC
Duration                                 : 1h 32mn
Bit rate                                 : 9 638 Kbps
Width                                    : 1 920 pixels
Height                                   : 816 pixels
Display aspect ratio                     : 2.35:1
Frame rate mode                          : Constant
Frame rate                               : 23.976 fps
Color space                              : YUV
Chroma subsampling                       : 4:2:0
Bit depth                                : 8 bits
Scan type                                : Progressive
Bits/(Pixel*Frame)                       : 0.257
Stream size                              : 6.24 GiB (85%)
Title                                    : roor-requiem_for_a_killer-1080p
Writing library                          : x264 core 120 r2146 bcd41db
Encoding settings                        : cabac=1 / ref=5 / deblock=1:0:0 / analyse=0x3:0x113 / me=umh / subme=7 / psy=1 / psy_rd=1.00:0.00 / mixed_ref=1 / me_range=16 / chroma_me=1 / trellis=1 / 8x8dct=1 / cqm=0 / deadzone=21,11 / fast_pskip=0 / chroma_qp_offset=-2 / threads=12 / sliced_threads=0 / nr=0 / decimate=1 / interlaced=0 / bluray_compat=0 / constrained_intra=0 / bframes=3 / b_pyramid=2 / b_adapt=1 / b_bias=0 / direct=1 / weightb=1 / open_gop=0 / weightp=2 / keyint=250 / keyint_min=23 / scenecut=40 / intra_refresh=0 / rc_lookahead=40 / rc=crf / mbtree=1 / crf=20.0 / qcomp=0.60 / qpmin=0 / qpmax=69 / qpstep=4 / ip_ratio=1.40 / aq=1:1.00
Default                                  : Yes
Forced                                   : No

Audio
ID                                       : 2
Format                                   : DTS
Format/Info                              : Digital Theater Systems
Mode                                     : 16
Format settings, Endianness              : Big
Codec ID                                 : A_DTS
Duration                                 : 1h 32mn
Bit rate mode                            : Constant
Bit rate                                 : 1 509 Kbps
Channel(s)                               : 6 channels
Channel positions                        : Front: L C R, Side: L R, LFE
Sampling rate                            : 48.0 KHz
Bit depth                                : 24 bits
Compression mode                         : Lossy
Stream size                              : 1 000 MiB (13%)
Title                                    : 1510kbps_dts
Language                                 : German
Default                                  : Yes
Forced                                   : No


Download:
Share Online Share OnlineShare OnlineShare Online
 

Kommentare