HD-AREA wünscht Euch eine besinnliche Weihnachtszeit ;)

DNS SERVER AENDERNum der staatlichen Zensur zu umgehen. Sollten wir von eurem Provider geseprrt werden, nutzt den TOR BROWSER oder ändert euren DNS SERVER.

Filmwünsche können bei uns im Forum abgegeben werden

Wir Speichern Nicht




 
 
 
Top Releases
The.Hateful.8.2015.German.AC...
Der.Unsichtbare.Gast.2016.Ge...
BlacKkKlansman.2018.German.A...
Von.Loewen.und.Laemmern.2007...
Von.Loewen.und.Laemmern.2007...
Von.Loewen.und.Laemmern.2007...
Braven.2018.German.AC3.DL.10...
The.Last.Movie.Star.2017.DUA...
The.Infiltrator.2016.German....
The.Equalizer.2.2018.German....

Cinedubs
Phantastische.Tierwesen.Grin...
Phantastische.Tierwesen.Grin...
The.Guilty.2018.German.AC3D....
The.Guilty.2018.German.AC3D....
Aufbruch.zum.Mond.German.DL....
Aufbruch.zum.Mond.German.DL....
Night.School.2018.GERMAN.DL....
Night.School.2018.GERMAN.DL....
Gaensehaut.2.Gruseliges.Hall...
Gaensehaut.2.Gruseliges.Hall...

Neuerscheinungen 2017-18
Pyewacket.Toedlicher.Fluch.2...
Leben.Und.Sterben.In.L.A.REM...
The.Running.Man.-.Limited.Co...
Alarmstufe.Rot.2.Under.Siege...
Egal.was.kommt.2018.GERMAN.D...
Occupation.2018.GERMAN.DL.10...
Campus.Killer.Das.Boese.Kehr...
Campus.Killer.Das.Boese.Kehr...
Campus.Killer.Das.Boese.Kehr...
Kopfueber.in.die.Nacht.1985....

XXX
ATKHairy.18.12.09.Selesta.XX...
1By-Day.18.12.12.Amber.Jayne...
ATKHairy.18.12.08.Isabel.Ste...
ATKHairy.18.12.10.Bella.Dahl...
1000Facials.18.12.10.Scarlet...
AnalTeenAngels.18.12.11.Stel...
Bang.RealMILFs.18.12.11.Ryde...
AllGirlMassage.18.12.10.Broo...
AmateurCFNM.18.12.11.Mandy.S...
Analized.18.12.07.Victoria.P...
AuntJudys.18.12.07.Nurse.Nat...
Anilos.18.12.10.Kayla.Green....
AbbyWinters.18.12.11.Sarah.Q...
AdultTime.18.12.11.India.Sum...
ATKGirlfriends.18.12.10.Dann...
BCM.18.12.10.Christie.Steven...
Babes.18.12.12.Nia.Nacci.Hea...
ALSScan.18.12.12.Sonia.Red.C...
AllInternal.18.12.10.Ally.St...
AuntJudys.18.12.10.Callidica...

3D
Meg.3D.2018.MULTi.COMPLETE.B...
Meg.3D.2018.German.DL.1080p....
Gans.im.Glueck.3D.2018.MULTi...
The.Art.of.Flight.3D.2011.Ge...
The.End.Of.The.World.3D.2010...
The.First.Avenger.Civil.War....
Die.Unglaublichen.2.2018.3D....
Skyscraper.3D.2018.MULTi.COM...
Ant-Man.And.The.Wasp.3D.2018...
Ant.Man.and.the.Wasp.3D.2018...
Die.Unglaublichen.2.3D.2018....
Die.Unglaublichen.2.2018.3D....
Die.Unglaublichen.2.2018.3D....
Sharknado.6.The.Last.One.3D....
Deep.Kleine.Helden.der.Tiefs...

Old_Stuff
Akte.X.S04.German.DTS.DL.108...
Akte.X.S03.German.DTS.DL.108...
Dunkirk.1958.COMPLETE.BLURAY...
Das.Wunder.von.Manhattan.199...
The.Amazing.Spiderman.2.Rise...
Rise.of.the.Predator.2014.Ge...
Detective.Dee.und.das.Geheim...
Detective.Dee.Und.Der.Fluch....
Ghost.Rider.Spirit.of.Vengea...
Species.IV.Das.Erwachen.2007...
Species.IV.Das.Erwachen.2007...
Hotel.Transsilvanien.2012.Ge...
The.Dead.2010.German.DL.1080...
The.Dead.2.India.2013.German...
Britney.Spears.Live.The.Femm...

Filme
Incubus.Moerderische.Traeume...
Hachiko.Eine.wunderbare.Freu...
Ohne.Schuld.2008.German.AC3....
Untraceable.2008.German.AC3....
Willkommen.im.Sueden.2010.Ge...
Snatch.S02.German.DL.DUBBED....
Snatch.S02.German.DL.DUBBED....
12.Monkeys.S03.COMPLETE.GERM...
12.Monkeys.S03.COMPLETE.GERM...
Criminal.Minds.S13.COMPLETE....
Once.Upon.a.Time.S07.German....
Once.Upon.a.Time.S07.German....
Ice.S02.GERMAN.DL.1080p.HDTV...
Ice.S02.GERMAN.DL.720p.HDTV....
Die.purpurnen.Fluesse.The.Cr...
Quantico.S03.GERMAN.DL.DUBBE...
Quantico.S03.GERMAN.DUBBED.7...
Venom.2018.German.AC3D.5.1.D...
Ray.Donovan.S06.GERMAN.DUBBE...
Ray.Donovan.S06.GERMAN.DUBBE...
American.Horror.Story.S08.GE...
American.Horror.Story.S08.GE...
Das.Boot.2018.S01.COMPLETE.G...
Das.Boot.2018.S01.COMPLETE.G...

 
 
Willkommen.im.Sueden.2010.German.AC3.DL.1080p.BluRay.x265-FuN

Jahr: 2010
Genre: Komödie
Sprache: Deutsch AC3 | Englisch AC3
Laufzeit: 1h 45mn
Bitrate: 3 345 Kbps
Format: MKV
Größe: 2.47 GiB
Release:

Beschreibung:

Alberto reicht´s! Er hat die Nase voll von seinem kleinen Postamt in der norditalienischen Provinz. Angetrieben von seiner Frau bemüht er sich um eine Versetzung ins pulsierende Mailand. Um seine Chancen zu erhöhen, begeht er einen folgenschweren Fehler: Er gibt vor, behindert zu sein. Der Schwindel fliegt auf und Alberto wird prompt strafversetzt nach Süditalien. Der gelebte Albtraum für jeden Norditaliener! Allein und voller böser Vorahnungen macht er sich auf den Weg ins Land der Tagediebe und Mafiosi, bei denen sich der Müll auf den Straßen türmt und deren Italienisch kein Mensch versteht. Doch statt einem bösen Erwachen entdeckt Alberto einen malerischen Ort voller liebenswerter Menschen, unwiderstehlichem Essen, herzlichen Kollegen und den einen, wahren Freund, den jeder Mensch im Leben braucht: den Briefträger Mattia, dem er hilft, das Herz der schönen Maria zurück zu erobern. Doch jetzt hat Alberto ein ganz anderes Problem: Wie soll er seiner Familie und seinen Freunden beibringen, dass er sich pudelwohl fühlt in seinem südlichen Exil. Als seine Ehefrau beschließt, ihn in seinem vermeintlichen Elend zu besuchen, nimmt nicht nur seine Ehe eine unerwartete Wendung…



Complete name                            : Willkommen.im.Sueden.2010.German.AC3.DL.1080p.BluRay.x265-FuN.mkv
Format                                   : Matroska
Format version                           : Version 4 / Version 2
File size                                : 2.47 GiB
Duration                                 : 1h 45mn
Overall bit rate                         : 3 345 Kbps
Movie name                               : WILLKOMMEN_IM_SUEDEN
Encoded date                             : UTC 2018-12-16 05:55:38
Writing application                      : mkvmerge v29.0.0 ('Like It Or Not') 64-bit
Writing library                          : libebml v1.3.6 + libmatroska v1.4.9

Video
ID                                       : 1
Format                                   : HEVC
Format/Info                              : High Efficiency Video Coding
Format profile                           : Main@L4.0
Codec ID                                 : V_MPEGH/ISO/HEVC
Duration                                 : 1h 45mn
Bit rate                                 : 2 510 Kbps
Width                                    : 1 920 pixels
Height                                   : 816 pixels
Display aspect ratio                     : 2.35:1
Frame rate mode                          : Constant
Frame rate                               : 24.000 fps
Color space                              : YUV
Chroma subsampling                       : 4:2:0
Bit depth                                : 8 bits
Bits/(Pixel*Frame)                       : 0.067
Stream size                              : 1.85 GiB (75%)
Writing library                          : x265 2.6:[Linux][GCC 6.4.0][64 bit] 8bit+10bit+12bit
Encoding settings                        : cpuid=1173503 / frame-threads=3 / wpp / no-pmode / no-pme / no-psnr / no-ssim / log-level=2 / input-csp=1 / input-res=1920x816 / interlace=0 / total-frames=0 / level-idc=0 / high-tier=1 / uhd-bd=0 / ref=3 / no-allow-non-conformance / no-repeat-headers / annexb / no-aud / no-hrd / info / hash=0 / no-temporal-layers / open-gop / min-keyint=24 / keyint=240 / bframes=4 / b-adapt=0 / b-pyramid / bframe-bias=0 / rc-lookahead=15 / lookahead-slices=5 / scenecut=40 / no-intra-refresh / ctu=64 / min-cu-size=8 / no-rect / no-amp / max-tu-size=32 / tu-inter-depth=1 / tu-intra-depth=1 / limit-tu=0 / rdoq-level=0 / dynamic-rd=0.00 / no-ssim-rd / signhide / no-tskip / nr-intra=0 / nr-inter=0 / no-constrained-intra / strong-intra-smoothing / max-merge=2 / limit-refs=3 / no-limit-modes / me=1 / subme=2 / merange=57 / temporal-mvp / weightp / no-weightb / no-analyze-src-pics / deblock=0:0 / no-sao / no-sao-non-deblock / rd=2 / no-early-skip / rskip / fast-intra / no-tskip-fast / no-cu-lossless / no-b-intra / no-splitrd-skip / rdpenalty=0 / psy-rd=2.00 / psy-rdoq=0.00 / no-rd-refine / analysis-reuse-mode=0 / no-lossless / cbqpoffs=0 / crqpoffs=0 / rc=crf / crf=22.0 / qcomp=0.60 / qpstep=4 / stats-write=0 / stats-read=0 / ipratio=1.40 / pbratio=1.30 / aq-mode=1 / aq-strength=1.00 / cutree / zone-count=0 / no-strict-cbr / qg-size=32 / no-rc-grain / qpmax=69 / qpmin=0 / no-const-vbv / sar=1 / overscan=0 / videoformat=5 / range=0 / colorprim=1 / transfer=1 / colormatrix=1 / chromaloc=0 / display-window=0 / max-cll=0,0 / min-luma=0 / max-luma=255 / log2-max-poc-lsb=8 / vui-timing-info / vui-hrd-info / slices=1 / no-opt-qp-pps / no-opt-ref-list-length-pps / no-multi-pass-opt-rps / scenecut-bias=0.05 / no-opt-cu-delta-qp / no-aq-motion / no-hdr / no-hdr-opt / no-dhdr10-opt / analysis-reuse-level=5 / scale-factor=0 / refine-intra=0 / refine-inter=0 / refine-mv=0 / no-limit-sao / ctu-info=0 / no-lowpass-dct / refine-mv-type=0 / copy-pic=1
Default                                  : Yes
Forced                                   : No
DURATION                                 : 01:45:40.834000000
NUMBER_OF_FRAMES                         : 152178
NUMBER_OF_BYTES                          : 2029111197
_STATISTICS_WRITING_APP                  : mkvmerge v29.0.0 ('Like It Or Not') 64-bit
_STATISTICS_WRITING_DATE_UTC             : 2018-12-16 05:55:38
_STATISTICS_TAGS                         : BPS DURATION NUMBER_OF_FRAMES NUMBER_OF_BYTES

Audio #1
ID                                       : 2
Format                                   : AC-3
Format/Info                              : Audio Coding 3
Mode extension                           : CM (complete main)
Format settings, Endianness              : Big
Codec ID                                 : A_AC3
Duration                                 : 1h 45mn
Bit rate mode                            : Constant
Bit rate                                 : 384 Kbps
Channel(s)                               : 6 channels
Channel positions                        : Front: L C R, Side: L R, LFE
Sampling rate                            : 48.0 KHz
Bit depth                                : 16 bits
Compression mode                         : Lossy
Stream size                              : 290 MiB (11%)
Title                                    : Surround
Language                                 : German
Default                                  : Yes
Forced                                   : No
DURATION                                 : 01:45:38.976000000
NUMBER_OF_FRAMES                         : 198093
NUMBER_OF_BYTES                          : 304270848
_STATISTICS_WRITING_APP                  : mkvmerge v29.0.0 ('Like It Or Not') 64-bit
_STATISTICS_WRITING_DATE_UTC             : 2018-12-16 05:55:38
_STATISTICS_TAGS                         : BPS DURATION NUMBER_OF_FRAMES NUMBER_OF_BYTES

Audio #2
ID                                       : 3
Format                                   : AC-3
Format/Info                              : Audio Coding 3
Mode extension                           : CM (complete main)
Format settings, Endianness              : Big
Codec ID                                 : A_AC3
Duration                                 : 1h 45mn
Bit rate mode                            : Constant
Bit rate                                 : 384 Kbps
Channel(s)                               : 6 channels
Channel positions                        : Front: L C R, Side: L R, LFE
Sampling rate                            : 48.0 KHz
Bit depth                                : 16 bits
Compression mode                         : Lossy
Stream size                              : 290 MiB (11%)
Title                                    : Surround
Language                                 : Italian
Default                                  : No
Forced                                   : No
DURATION                                 : 01:45:38.976000000
NUMBER_OF_FRAMES                         : 198093
NUMBER_OF_BYTES                          : 304270848
_STATISTICS_WRITING_APP                  : mkvmerge v29.0.0 ('Like It Or Not') 64-bit
_STATISTICS_WRITING_DATE_UTC             : 2018-12-16 05:55:38
_STATISTICS_TAGS                         : BPS DURATION NUMBER_OF_FRAMES NUMBER_OF_BYTES


Download:
Share Online Share OnlineShare OnlineShare Online
 

Kommentare