HD-AREA wünscht Euch eine besinnliche Weihnachtszeit ;)

DNS SERVER AENDERNum der staatlichen Zensur zu umgehen. Sollten wir von eurem Provider geseprrt werden, nutzt den TOR BROWSER oder ändert euren DNS SERVER.

Filmwünsche können bei uns im Forum abgegeben werden

Wir Speichern Nicht




 
 
 
Top Releases
The.Last.Movie.Star.2017.DUA...
The.Infiltrator.2016.German....
The.Equalizer.2.2018.German....
Avengers.Infinity.War.IMAX.2...
Mario.2018.GERMAN.COMPLETE.B...
Mario.2018.GERMAN.1080p.BluR...
Mario.2018.GERMAN.720p.BluRa...
The.Equalizer.2.2018.German....
Espen.und.die.Legende.vom.Be...
Nick.und.Norah.Soundtrack.ei...

Cinedubs
Aufbruch.zum.Mond.German.DL....
Aufbruch.zum.Mond.German.DL....
Night.School.2018.GERMAN.DL....
Night.School.2018.GERMAN.DL....
Gaensehaut.2.Gruseliges.Hall...
Gaensehaut.2.Gruseliges.Hall...
Unknown.User.2.Dark.Web.Germ...
Unknown.User.2.Dark.Web.Germ...
Peppermint.Angel.of.Vengeanc...
Peppermint.Angel.of.Vengeanc...

Neuerscheinungen 2017-18
Frankensteins.Kampf.gegen.di...
Frankensteins.Hoellenbrut.Go...
Wildling.2018.German.AC3.DL....
Sternenjaeger.Abenteuer.Nach...
Das.zweite.Gesicht.1993.Germ...
Bitter.Moon.1992.German.DL.1...
Galaxina.1980.Uncut.German.D...
Wenn.suess.das.Mondlicht.auf...
Fear.and.Loathing.in.Las.Veg...
Frankenstein.und.die.Ungeheu...

XXX
Passion-HD.18.12.01.Vina.Sky...
Private.18.12.01.Victoria.Pu...
PornFidelity.E771.Bridgette....
PlayboyPlus.18.12.03.Olivia....
PlumperPass.18.12.03.Angelin...
PervMom.18.11.29.Kenzie.Tayl...
PornMegaLoad.18.11.30.Alice....
PornStreamLive.18.12.01.Ayli...
NothingButCurves.18.11.30.Ga...
PornstarPlatinum.18.12.02.Ca...
PennyPaxLive.18.11.28.POV.Wi...
PornMegaLoad.18.12.02.Rachae...
Nubiles.18.12.02.Kate.Kenned...
PervMom.18.12.01.Jasmine.Jae...
PlayboyPlus.18.12.02.Playmat...
PornMegaLoad.18.12.01.Ariane...
PornMegaLoad.18.11.30.Nila.M...
POVManiaXXX.18.11.30.Lauren....
Nympho.18.12.01.Autumn.Falls...
NubileFilms.18.12.01.Cindy.S...

3D
Gans.im.Glueck.3D.2018.MULTi...
The.Art.of.Flight.3D.2011.Ge...
The.End.Of.The.World.3D.2010...
The.First.Avenger.Civil.War....
Die.Unglaublichen.2.2018.3D....
Skyscraper.3D.2018.MULTi.COM...
Ant-Man.And.The.Wasp.3D.2018...
Ant.Man.and.the.Wasp.3D.2018...
Die.Unglaublichen.2.3D.2018....
Die.Unglaublichen.2.2018.3D....
Die.Unglaublichen.2.2018.3D....
Sharknado.6.The.Last.One.3D....
Deep.Kleine.Helden.der.Tiefs...
Deep.3D.2017.MULTI.COMPLETE....
Detective.Dee.und.die.Legend...

Old_Stuff
Akte.X.S04.German.DTS.DL.108...
Akte.X.S03.German.DTS.DL.108...
Dunkirk.1958.COMPLETE.BLURAY...
Das.Wunder.von.Manhattan.199...
The.Amazing.Spiderman.2.Rise...
Rise.of.the.Predator.2014.Ge...
Detective.Dee.und.das.Geheim...
Detective.Dee.Und.Der.Fluch....
Ghost.Rider.Spirit.of.Vengea...
Species.IV.Das.Erwachen.2007...
Species.IV.Das.Erwachen.2007...
Hotel.Transsilvanien.2012.Ge...
The.Dead.2010.German.DL.1080...
The.Dead.2.India.2013.German...
Britney.Spears.Live.The.Femm...

Filme
Wedding.Date.2005.German.AC3...
Unheimliche.Begegnung.der.dr...
Kidnapped.-.Du.dachtest.du.b...
The.Equalizer.2.2018.German....
The.Equalizer.2.2018.German....
Zurueck.in.die.Zukunft.1985-...
Beautiful.Girls.1996.German....
Kill.Zone.-.SPL.2005.German....
Black.47.2018.German.DTS.DL....
Renegades.Mission.of.Honor.2...
BlacKkKlansman.2018.German.D...
Sternenjaeger.Abenteuer.Nach...
Das.zweite.Gesicht.1993.Germ...
Bitter.Moon.1992.German.720p...
Galaxina.1980.Uncut.German.7...
Rendezvous.mit.einer.Leiche....
Rendezvous.mit.einer.Leiche....
Kill.Zone.SPL.2005.German.Du...
Kissing.Jessica.2001.GERMAN....
The.Equalizer.2.2018.German....
Cold.Blooded.1995.UNCUT.Germ...
Dumbo.Der.fliegende.Elefant....
Malavita.The.Family.2013.Ger...
Robin.Hood.1973.German.AC3.D...

 
 
The.Infiltrator.2016.German.AC3.DL.1080pBluRay.x265-FuN

Jahr: 2016
Genre: Biografie, Drama
Sprache: Deutsch AC3 | Englisch AC3
Laufzeit: 2h 6mn
Bitrate: 3 123 Kbps
Format: MKV
Größe: 2.77 GiB
Release:

Beschreibung:

Es ist der wahrscheinlich gefährlichste Undercover-Auftrag der Geschichte, den Special Agent Robert Mazur Mitte der 1980er übernimmt: Er soll in der Rolle des smarten Geschäftsmannes Bob Musella das beispiellos mächtige Drogenkartell von Pablo Escobar unterwandern, der mit einer Armee von Dealern die USA mit Drogen überschwemmt und seine Geschäfte mit rücksichtsloser Gewalt absichert. Zur Seite stehen Mazur der impulsive Agent Emir Abreu und die neue Kollegin Kathy Ertz, die sich als Mazurs Verlobte ausgibt.



Complete name                            : The.Infiltrator.2016.German.AC3.DL.1080pBluRay.x265-FuN-low.mkv
Format                                   : Matroska
Format version                           : Version 4 / Version 2
File size                                : 2.77 GiB
Duration                                 : 2h 6mn
Overall bit rate                         : 3 123 Kbps
Movie name                               : The Infiltrator
Encoded date                             : UTC 2018-12-14 03:52:09
Writing application                      : mkvmerge v28.2.0 ('The Awakening') 64-bit
Writing library                          : libebml v1.3.6 + libmatroska v1.4.9
DURATION                                 : 01:56:29.931000000
NUMBER_OF_FRAMES                         : 1589
NUMBER_OF_BYTES                          : 10142573
_STATISTICS_WRITING_APP                  : mkvmerge v28.2.0 ('The Awakening') 64-bit
_STATISTICS_WRITING_DATE_UTC             : 2018-12-14 03:52:09
_STATISTICS_TAGS                         : BPS DURATION NUMBER_OF_FRAMES NUMBER_OF_BYTES

Video
ID                                       : 1
Format                                   : HEVC
Format/Info                              : High Efficiency Video Coding
Format profile                           : Main@L4.0
Codec ID                                 : V_MPEGH/ISO/HEVC
Duration                                 : 2h 6mn
Bit rate                                 : 2 293 Kbps
Width                                    : 1 920 pixels
Height                                   : 802 pixels
Display aspect ratio                     : 2.40:1
Frame rate mode                          : Constant
Frame rate                               : 23.976 fps
Color space                              : YUV
Chroma subsampling                       : 4:2:0
Bit depth                                : 8 bits
Bits/(Pixel*Frame)                       : 0.062
Stream size                              : 2.03 GiB (73%)
Writing library                          : x265 2.6:[Linux][GCC 6.4.0][64 bit] 8bit+10bit+12bit
Encoding settings                        : cpuid=1173503 / frame-threads=3 / wpp / no-pmode / no-pme / no-psnr / no-ssim / log-level=2 / input-csp=1 / input-res=1920x802 / interlace=0 / total-frames=0 / level-idc=0 / high-tier=1 / uhd-bd=0 / ref=3 / no-allow-non-conformance / no-repeat-headers / annexb / no-aud / no-hrd / info / hash=0 / no-temporal-layers / open-gop / min-keyint=24 / keyint=240 / bframes=4 / b-adapt=0 / b-pyramid / bframe-bias=0 / rc-lookahead=15 / lookahead-slices=5 / scenecut=40 / no-intra-refresh / ctu=64 / min-cu-size=8 / no-rect / no-amp / max-tu-size=32 / tu-inter-depth=1 / tu-intra-depth=1 / limit-tu=0 / rdoq-level=0 / dynamic-rd=0.00 / no-ssim-rd / signhide / no-tskip / nr-intra=0 / nr-inter=0 / no-constrained-intra / strong-intra-smoothing / max-merge=2 / limit-refs=3 / no-limit-modes / me=1 / subme=2 / merange=57 / temporal-mvp / weightp / no-weightb / no-analyze-src-pics / deblock=0:0 / no-sao / no-sao-non-deblock / rd=2 / no-early-skip / rskip / fast-intra / no-tskip-fast / no-cu-lossless / no-b-intra / no-splitrd-skip / rdpenalty=0 / psy-rd=2.00 / psy-rdoq=0.00 / no-rd-refine / analysis-reuse-mode=0 / no-lossless / cbqpoffs=0 / crqpoffs=0 / rc=crf / crf=23.0 / qcomp=0.60 / qpstep=4 / stats-write=0 / stats-read=0 / ipratio=1.40 / pbratio=1.30 / aq-mode=1 / aq-strength=1.00 / cutree / zone-count=0 / no-strict-cbr / qg-size=32 / no-rc-grain / qpmax=69 / qpmin=0 / no-const-vbv / sar=1 / overscan=0 / videoformat=5 / range=0 / colorprim=1 / transfer=1 / colormatrix=1 / chromaloc=0 / display-window=0 / max-cll=0,0 / min-luma=0 / max-luma=255 / log2-max-poc-lsb=8 / vui-timing-info / vui-hrd-info / slices=1 / no-opt-qp-pps / no-opt-ref-list-length-pps / no-multi-pass-opt-rps / scenecut-bias=0.05 / no-opt-cu-delta-qp / no-aq-motion / no-hdr / no-hdr-opt / no-dhdr10-opt / analysis-reuse-level=5 / scale-factor=0 / refine-intra=0 / refine-inter=0 / refine-mv=0 / no-limit-sao / ctu-info=0 / no-lowpass-dct / refine-mv-type=0 / copy-pic=1
Default                                  : Yes
Forced                                   : No
DURATION                                 : 02:06:57.485000000
NUMBER_OF_FRAMES                         : 182636
NUMBER_OF_BYTES                          : 2174213784
_STATISTICS_WRITING_APP                  : mkvmerge v28.2.0 ('The Awakening') 64-bit
_STATISTICS_WRITING_DATE_UTC             : 2018-12-14 03:52:09
_STATISTICS_TAGS                         : BPS DURATION NUMBER_OF_FRAMES NUMBER_OF_BYTES

Audio #1
ID                                       : 2
Format                                   : AC-3
Format/Info                              : Audio Coding 3
Mode extension                           : CM (complete main)
Format settings, Endianness              : Big
Codec ID                                 : A_AC3
Duration                                 : 2h 6mn
Bit rate mode                            : Constant
Bit rate                                 : 384 Kbps
Channel(s)                               : 6 channels
Channel positions                        : Front: L C R, Side: L R, LFE
Sampling rate                            : 48.0 KHz
Bit depth                                : 16 bits
Compression mode                         : Lossy
Stream size                              : 349 MiB (12%)
Title                                    : Surround
Language                                 : German
Default                                  : Yes
Forced                                   : No
DURATION                                 : 02:06:57.472000000
NUMBER_OF_FRAMES                         : 238046
NUMBER_OF_BYTES                          : 365638656
_STATISTICS_WRITING_APP                  : mkvmerge v28.2.0 ('The Awakening') 64-bit
_STATISTICS_WRITING_DATE_UTC             : 2018-12-14 03:52:09
_STATISTICS_TAGS                         : BPS DURATION NUMBER_OF_FRAMES NUMBER_OF_BYTES

Audio #2
ID                                       : 3
Format                                   : AC-3
Format/Info                              : Audio Coding 3
Mode extension                           : CM (complete main)
Format settings, Endianness              : Big
Codec ID                                 : A_AC3
Duration                                 : 2h 6mn
Bit rate mode                            : Constant
Bit rate                                 : 384 Kbps
Channel(s)                               : 6 channels
Channel positions                        : Front: L C R, Side: L R, LFE
Sampling rate                            : 48.0 KHz
Bit depth                                : 16 bits
Compression mode                         : Lossy
Stream size                              : 349 MiB (12%)
Title                                    : Surround
Language                                 : English
Default                                  : No
Forced                                   : No
DURATION                                 : 02:06:57.504000000
NUMBER_OF_FRAMES                         : 238047
NUMBER_OF_BYTES                          : 365640192
_STATISTICS_WRITING_APP                  : mkvmerge v28.2.0 ('The Awakening') 64-bit
_STATISTICS_WRITING_DATE_UTC             : 2018-12-14 03:52:09
_STATISTICS_TAGS                         : BPS DURATION NUMBER_OF_FRAMES NUMBER_OF_BYTES


Download:
Share Online Share OnlineShare OnlineShare Online
 

Kommentare