HD-AREA wünscht Euch eine besinnliche Weihnachtszeit ;)

DNS SERVER AENDERNum der staatlichen Zensur zu umgehen. Sollten wir von eurem Provider geseprrt werden, nutzt den TOR BROWSER oder ändert euren DNS SERVER.

Filmwünsche können bei uns im Forum abgegeben werden

Wir Speichern Nicht




 
 
 
Top Releases
Mario.2018.GERMAN.COMPLETE.B...
Mario.2018.GERMAN.1080p.BluR...
Mario.2018.GERMAN.720p.BluRa...
The.Equalizer.2.2018.German....
Espen.und.die.Legende.vom.Be...
Nick.und.Norah.Soundtrack.ei...
The.Equalizer.2.2018.German....
The.Equalizer.2.2018.MULTi.C...
The.Equalizer.2.2018.MULTi.C...
BlacKkKlansman.2018.German.D...

Cinedubs
Aufbruch.zum.Mond.German.DL....
Aufbruch.zum.Mond.German.DL....
Night.School.2018.GERMAN.DL....
Night.School.2018.GERMAN.DL....
Gaensehaut.2.Gruseliges.Hall...
Gaensehaut.2.Gruseliges.Hall...
Unknown.User.2.Dark.Web.Germ...
Unknown.User.2.Dark.Web.Germ...
Peppermint.Angel.of.Vengeanc...
Peppermint.Angel.of.Vengeanc...

Neuerscheinungen 2017-18
Sternenjaeger.Abenteuer.Nach...
Das.zweite.Gesicht.1993.Germ...
Bitter.Moon.1992.German.DL.1...
Galaxina.1980.Uncut.German.D...
Wenn.suess.das.Mondlicht.auf...
Fear.and.Loathing.in.Las.Veg...
Frankenstein.und.die.Ungeheu...
Solis.2018.German.DL.DD51.10...
Mara.2018.German.DL.1080p.Bl...
Future.World.2018.German.AC3...

XXX
Passion-HD.18.12.01.Vina.Sky...
Private.18.12.01.Victoria.Pu...
PornFidelity.E771.Bridgette....
PlayboyPlus.18.12.03.Olivia....
PlumperPass.18.12.03.Angelin...
PervMom.18.11.29.Kenzie.Tayl...
PornMegaLoad.18.11.30.Alice....
PornStreamLive.18.12.01.Ayli...
NothingButCurves.18.11.30.Ga...
PornstarPlatinum.18.12.02.Ca...
PennyPaxLive.18.11.28.POV.Wi...
PornMegaLoad.18.12.02.Rachae...
Nubiles.18.12.02.Kate.Kenned...
PervMom.18.12.01.Jasmine.Jae...
PlayboyPlus.18.12.02.Playmat...
PornMegaLoad.18.12.01.Ariane...
PornMegaLoad.18.11.30.Nila.M...
POVManiaXXX.18.11.30.Lauren....
Nympho.18.12.01.Autumn.Falls...
NubileFilms.18.12.01.Cindy.S...

3D
Gans.im.Glueck.3D.2018.MULTi...
The.Art.of.Flight.3D.2011.Ge...
The.End.Of.The.World.3D.2010...
The.First.Avenger.Civil.War....
Die.Unglaublichen.2.2018.3D....
Skyscraper.3D.2018.MULTi.COM...
Ant-Man.And.The.Wasp.3D.2018...
Ant.Man.and.the.Wasp.3D.2018...
Die.Unglaublichen.2.3D.2018....
Die.Unglaublichen.2.2018.3D....
Die.Unglaublichen.2.2018.3D....
Sharknado.6.The.Last.One.3D....
Deep.Kleine.Helden.der.Tiefs...
Deep.3D.2017.MULTI.COMPLETE....
Detective.Dee.und.die.Legend...

Old_Stuff
Akte.X.S04.German.DTS.DL.108...
Akte.X.S03.German.DTS.DL.108...
Dunkirk.1958.COMPLETE.BLURAY...
Das.Wunder.von.Manhattan.199...
The.Amazing.Spiderman.2.Rise...
Rise.of.the.Predator.2014.Ge...
Detective.Dee.und.das.Geheim...
Detective.Dee.Und.Der.Fluch....
Ghost.Rider.Spirit.of.Vengea...
Species.IV.Das.Erwachen.2007...
Species.IV.Das.Erwachen.2007...
Hotel.Transsilvanien.2012.Ge...
The.Dead.2010.German.DL.1080...
The.Dead.2.India.2013.German...
Britney.Spears.Live.The.Femm...

Filme
Sternenjaeger.Abenteuer.Nach...
Das.zweite.Gesicht.1993.Germ...
Bitter.Moon.1992.German.720p...
Galaxina.1980.Uncut.German.7...
Rendezvous.mit.einer.Leiche....
Rendezvous.mit.einer.Leiche....
Kill.Zone.SPL.2005.German.Du...
Kissing.Jessica.2001.GERMAN....
The.Equalizer.2.2018.German....
Cold.Blooded.1995.UNCUT.Germ...
Dumbo.Der.fliegende.Elefant....
Malavita.The.Family.2013.Ger...
Robin.Hood.1973.German.AC3.D...
The.Equalizer.2.2018.German....
Redemption.2011.German.DL.10...
Redline.2007.German.DTS.DL.1...
Redistributors.Die.Umverteil...
Reds.1981.German.DL.1080p.Bl...
Reeperbahn.2016.GERMAN.1080p...
Killer.Party.1986.German.Dub...
Red.Tears.Uncut.2011.German....
Red.Tails.2012.German.DL.108...
Mara.2018.German.DTS.DL.1080...
Marrakesch.1966.German.AC3D....

 
 
Aufbruch.zum.Mond.German.DL.AC3.Dubbed.720p.WEB.h264-PsO

Jahr: 2018
Genre: Biografie, Drama
Sprache: Deutsch AC3 | Englisch AC3
Laufzeit: 2h 21mn
Bitrate: 5 113 Kbps
Format: MKV
Größe: 5.06 GiB
Release:

Beschreibung:

Der Ingenieur Neil Armstrong (Ryan Gosling) arbeitet Anfang der 60er Jahre als Testpilot für Jets und Raketenflugzeuge und hat mit seiner Frau Janet (Claire Foy) und den beiden Kindern Rick (Gavin Warren) und Karen (Lucy Stafford) eine liebende Familie hinter sich, die ihm den Rücke stärkt. Sein ganzes Leben ändert sich jedoch, als seine Tochter an einem Gehirntumor stirbt und die Familie nach einer Veränderung sucht. Diese bietet sich, als die NASA für ein Mondprogramm auf der Suche nach Piloten mit Ingenieurswissen sind. Neil nutzt die Chance und zieht mit seiner Familie nach Houston, wo er eine Ausbildung zum Astronauten beginnt. Nach etlichen Strapazen und Testflügen, kämpft sich der professionelle Ingenieur bis an die Spitze und wird bald gemeinsam mit Buzz Aldrin (Corey Stoll) und Mike Collins (Lukas Haas) mit der Apollo-11-Mission zum Mond geschickt.



Complete name                            : pso-firstman_web.720p.mkv
Format                                   : Matroska
Format version                           : Version 4 / Version 2
File size                                : 5.06 GiB
Duration                                 : 2h 21mn
Overall bit rate                         : 5 113 Kbps
Encoded date                             : UTC 2018-12-15 00:52:07
Writing application                      : mkvmerge v8.0.0 ('Til The Day That I Die') 64bit
Writing library                          : libebml v1.3.1 + libmatroska v1.4.2
DURATION                                 : 02:19:30.203000000
NUMBER_OF_FRAMES                         : 1223
NUMBER_OF_BYTES                          : 43389
_STATISTICS_WRITING_APP                  : mkvmerge v8.0.0 ('Til The Day That I Die') 64bit
_STATISTICS_WRITING_DATE_UTC             : 2018-12-15 00:52:07
_STATISTICS_TAGS                         : BPS DURATION NUMBER_OF_FRAMES NUMBER_OF_BYTES

Video
ID                                       : 1
Format                                   : AVC
Format/Info                              : Advanced Video Codec
Format profile                           : High@L3.1
Format settings, CABAC                   : No
Format settings, ReFrames                : 2 frames
Codec ID                                 : V_MPEG4/ISO/AVC
Duration                                 : 2h 21mn
Bit rate                                 : 3 988 Kbps
Width                                    : 1 280 pixels
Height                                   : 718 pixels
Display aspect ratio                     : 16:9
Frame rate mode                          : Constant
Frame rate                               : 23.976 fps
Color space                              : YUV
Chroma subsampling                       : 4:2:0
Bit depth                                : 8 bits
Scan type                                : Progressive
Bits/(Pixel*Frame)                       : 0.181
Stream size                              : 3.95 GiB (78%)
Default                                  : Yes
Forced                                   : No
Color primaries                          : BT.709
Transfer characteristics                 : BT.709
Matrix coefficients                      : BT.709

Audio #1
ID                                       : 2
Format                                   : AC-3
Format/Info                              : Audio Coding 3
Mode extension                           : CM (complete main)
Format settings, Endianness              : Big
Codec ID                                 : A_AC3
Duration                                 : 2h 21mn
Bit rate mode                            : Constant
Bit rate                                 : 640 Kbps
Channel(s)                               : 6 channels
Channel positions                        : Front: L C R, Side: L R, LFE
Sampling rate                            : 48.0 KHz
Bit depth                                : 16 bits
Compression mode                         : Lossy
Delay relative to video                  : 3s 0ms
Stream size                              : 648 MiB (13%)
Language                                 : German
Default                                  : Yes
Forced                                   : Yes

Audio #2
ID                                       : 3
Format                                   : AC-3
Format/Info                              : Audio Coding 3
Mode extension                           : CM (complete main)
Format settings, Endianness              : Big
Codec ID                                 : A_AC3
Duration                                 : 2h 21mn
Bit rate mode                            : Constant
Bit rate                                 : 384 Kbps
Channel(s)                               : 6 channels
Channel positions                        : Front: L C R, Side: L R, LFE
Sampling rate                            : 48.0 KHz
Bit depth                                : 16 bits
Compression mode                         : Lossy
Stream size                              : 389 MiB (8%)
Language                                 : English
Default                                  : No
Forced                                   : No

Text #1
ID                                       : 4
Format                                   : UTF-8
Codec ID                                 : S_TEXT/UTF8
Codec ID/Info                            : UTF-8 Plain Text
Title                                    : forced
Language                                 : German
Default                                  : Yes
Forced                                   : Yes

Text #2
ID                                       : 5
Format                                   : UTF-8
Codec ID                                 : S_TEXT/UTF8
Codec ID/Info                            : UTF-8 Plain Text
Language                                 : German
Default                                  : No
Forced                                   : No


Download:
Share Online Share OnlineShare OnlineShare Online
 

Kommentare