HD-AREA wünscht Euch eine besinnliche Weihnachtszeit ;)

DNS SERVER AENDERNum der staatlichen Zensur zu umgehen. Sollten wir von eurem Provider geseprrt werden, nutzt den TOR BROWSER oder ändert euren DNS SERVER.

Filmwünsche können bei uns im Forum abgegeben werden

Wir Speichern Nicht




 
 
 
Top Releases
Black.47.2018.German.DTS.HD....
Black.47.2018.MULTi.COMPLETE...
BlacKkKlansman.2018.German.D...
BlacKkKlansman.2018.German.7...
The.Last.Movie.Star.2017.Ger...
Black.47.2018.German.720p.Bl...
Black.47.2018.German.DL.1080...
Mission.Impossible.Fallout.2...
Mission.Impossible.Fallout.2...
Ein.Kind.zur.Zeit.2018.Germa...

Cinedubs
Night.School.2018.GERMAN.DL....
Night.School.2018.GERMAN.DL....
Gaensehaut.2.Gruseliges.Hall...
Gaensehaut.2.Gruseliges.Hall...
Unknown.User.2.Dark.Web.Germ...
Unknown.User.2.Dark.Web.Germ...
Peppermint.Angel.of.Vengeanc...
Peppermint.Angel.of.Vengeanc...
Venom.German.DL.AC3.Dubbed.1...
Venom.2018.German.AC3D.5.1.D...

Neuerscheinungen 2017-18
Wildling.2018.German.DL.1080...
Wildling.2018.German.720p.Bl...
Breaking.In.2018.German.DTS....
Breaking.In.2018.German.DTS....
I.Still.See.You.Sie.lassen.d...
I.Still.See.You.Sie.lassen.d...
Mara.2018.German.720p.BluRay...
Mara.2018.German.DL.1080p.Bl...
Espen.und.die.Legende.vom.Be...
Espen.und.die.Legende.vom.Be...

XXX
FatManFuck.17.09.28.Savannah...
Kemaco.29.XXX.720p.WEBRip.MP...
LANewGirl.18.11.25.Hanna.Ret...
MatureNL.18.11.08.Alexa.Blun...
LANewGirl.18.11.27.Kinsley.M...
LittleCapriceDreams.18.11.23...
MatureNL.18.11.13.Beau.Diamo...
MatureNL.18.11.16.Cassie.Ell...
KimberLeeLive.18.12.01.Teach...
LivingWithAPornstar.18.12.03...
MatureNL.18.11.06.Allison.An...
KimberLeeLive.18.11.24.Am.I....
MatureNL.18.11.02.Gina.Feroc...
Killergram.18.12.01.Karina.G...
Hitzefrei.18.10.31.Nina.Vega...
Lesbea.18.12.01.Ashely.Ocean...
LittleCapriceDreams.18.12.01...
FatManFuck.17.10.02.Lauren.C...
LesbianX.18.12.01.Sinn.Sage....
HeavyOnHotties.18.11.30.Tayl...

3D
Gans.im.Glueck.3D.2018.MULTi...
The.Art.of.Flight.3D.2011.Ge...
The.End.Of.The.World.3D.2010...
The.First.Avenger.Civil.War....
Die.Unglaublichen.2.2018.3D....
Skyscraper.3D.2018.MULTi.COM...
Ant-Man.And.The.Wasp.3D.2018...
Ant.Man.and.the.Wasp.3D.2018...
Die.Unglaublichen.2.3D.2018....
Die.Unglaublichen.2.2018.3D....
Die.Unglaublichen.2.2018.3D....
Sharknado.6.The.Last.One.3D....
Deep.Kleine.Helden.der.Tiefs...
Deep.3D.2017.MULTI.COMPLETE....
Detective.Dee.und.die.Legend...

Old_Stuff
Akte.X.S04.German.DTS.DL.108...
Akte.X.S03.German.DTS.DL.108...
Dunkirk.1958.COMPLETE.BLURAY...
Das.Wunder.von.Manhattan.199...
The.Amazing.Spiderman.2.Rise...
Rise.of.the.Predator.2014.Ge...
Detective.Dee.und.das.Geheim...
Detective.Dee.Und.Der.Fluch....
Ghost.Rider.Spirit.of.Vengea...
Species.IV.Das.Erwachen.2007...
Species.IV.Das.Erwachen.2007...
Hotel.Transsilvanien.2012.Ge...
The.Dead.2010.German.DL.1080...
The.Dead.2.India.2013.German...
Britney.Spears.Live.The.Femm...

Filme
Heut.gehn.wir.bummeln.1949.G...
Red.Scorpion.UNRATED.German....
Redbelt.German.DL.1080p.BluR...
Reflecting.Skin.Schrei.in.de...
Regression.2015.German.DL.10...
Red.White.and.Blue.2010.Germ...
Ravenous.1999.GERMAN.AC3D.DL...
Meg.2018.German.DL.2160p.UHD...
Rare.Exports.German.1080p.Bl...
Raze.Fight.or.Die.2013.Germa...
Ready.for.Hangover.2009.Germ...
Das.Wunder.von.Manhattan.194...
Der.Ghostwriter.2010.German....
Ranchero.2008.German.DL.1080...
Rebellion.2011.German.DL.108...
Rammbock.Berlin.Undead.2010....
Miami.Vice.S01.Uncut.German....
Succession.S01D01-3.MULTi.CO...
Venom.2018.German.Dubbed.AC3...
Draculas.Haus.1945.German.Du...
Das.Siebente.Siegel.German.A...
Draculas.Sohn.1943.German.Du...
Meine.teuflisch.gute.Freundi...
No.Mans.Land.The.Rise.of.Ree...

 
 
Regression.2015.German.DL.1080p.BluRay.x264-ENCOUNTERS

Jahr: 2015
Genre: Mystery, Thriller
Sprache: Deutsch DTS | Englisch DTS
Laufzeit: 1h 46mn
Bitrate: 6 037 Kbps
Format: MKV
Größe: 4.49 GiB
Release:

Beschreibung:

Der Polizist Bruce Kenner ermittelt im Fall der 17 Jahre alten Angela Gray. Das völlig verängstigte und verstörte Mädchen wurde von einer satanistischen Sekte entführt und vergewaltigt. Angela glaubt, auch ihren Vater John unter den Tätern gesehen zu haben, was ihr Trauma noch verstärkt. John gibt jedoch vor, sich an nichts erinnern zu können. Um die Amnesie des Vaters zu untersuchen, wird der Psychologe Prof. Raines hinzugezogen. Währenddessen führen Kenners Ermittlungen zu immer unglaublicheren Enthüllungen, die den mit allen Wassern gewaschenen Cop bis an den Rand seines Vorstellungsvermögens treiben. Wie Angela wird auch er bald von Albträumen heimgesucht und die Existenz des Teufels erscheint ihm langsam alles andere als unwahrscheinlich.



Complete name                            : encounters-regression_1080p.mkv
Format                                   : Matroska
Format version                           : Version 4 / Version 2
File size                                : 4.49 GiB
Duration                                 : 1h 46mn
Overall bit rate                         : 6 037 Kbps
Encoded date                             : UTC 2016-02-09 19:09:30
Writing application                      : mkvmerge v8.3.0 ('Over the Horizon') 64bit
Writing library                          : libebml v1.3.1 + libmatroska v1.4.2
DURATION                                 : 01:40:24.894000000
NUMBER_OF_FRAMES                         : 3
NUMBER_OF_BYTES                          : 24
_STATISTICS_WRITING_APP                  : mkvmerge v8.3.0 ('Over the Horizon') 64bit
_STATISTICS_WRITING_DATE_UTC             : 2016-02-09 19:09:30
_STATISTICS_TAGS                         : BPS DURATION NUMBER_OF_FRAMES NUMBER_OF_BYTES

Video
ID                                       : 1
Format                                   : AVC
Format/Info                              : Advanced Video Codec
Format profile                           : High@L4.1
Format settings, CABAC                   : Yes
Format settings, ReFrames                : 5 frames
Codec ID                                 : V_MPEG4/ISO/AVC
Duration                                 : 1h 46mn
Bit rate                                 : 2 899 Kbps
Width                                    : 1 920 pixels
Height                                   : 808 pixels
Display aspect ratio                     : 2.40:1
Frame rate mode                          : Constant
Frame rate                               : 23.976 fps
Color space                              : YUV
Chroma subsampling                       : 4:2:0
Bit depth                                : 8 bits
Scan type                                : Progressive
Bits/(Pixel*Frame)                       : 0.078
Stream size                              : 2.16 GiB (48%)
Title                                    : encounters-regression_1080p
Writing library                          : x264 core 148 r2665 a01e339
Encoding settings                        : cabac=1 / ref=5 / deblock=1:-1:-1 / analyse=0x3:0x133 / me=umh / subme=7 / psy=1 / psy_rd=1.00:0.15 / mixed_ref=1 / me_range=16 / chroma_me=1 / trellis=1 / 8x8dct=1 / cqm=0 / deadzone=21,11 / fast_pskip=0 / chroma_qp_offset=-3 / threads=18 / lookahead_threads=3 / sliced_threads=0 / nr=0 / decimate=1 / interlaced=0 / bluray_compat=0 / constrained_intra=0 / bframes=3 / b_pyramid=2 / b_adapt=1 / b_bias=0 / direct=1 / weightb=1 / open_gop=0 / weightp=2 / keyint=250 / keyint_min=23 / scenecut=40 / intra_refresh=0 / rc_lookahead=40 / rc=crf / mbtree=1 / crf=20.0 / qcomp=0.60 / qpmin=0 / qpmax=69 / qpstep=4 / ip_ratio=1.40 / aq=1:1.00
Default                                  : Yes
Forced                                   : No

Audio #1
ID                                       : 2
Format                                   : DTS
Format/Info                              : Digital Theater Systems
Mode                                     : 16
Format settings, Endianness              : Big
Codec ID                                 : A_DTS
Duration                                 : 1h 46mn
Bit rate mode                            : Constant
Bit rate                                 : 1 509 Kbps
Channel(s)                               : 6 channels
Channel positions                        : Front: L C R, Side: L R, LFE
Sampling rate                            : 48.0 KHz
Bit depth                                : 24 bits
Compression mode                         : Lossy
Stream size                              : 1.12 GiB (25%)
Title                                    : DTS-1 510 Kbps
Language                                 : German
Default                                  : Yes
Forced                                   : No

Audio #2
ID                                       : 3
Format                                   : DTS
Format/Info                              : Digital Theater Systems
Mode                                     : 16
Format settings, Endianness              : Big
Codec ID                                 : A_DTS
Duration                                 : 1h 46mn
Bit rate mode                            : Constant
Bit rate                                 : 1 509 Kbps
Channel(s)                               : 6 channels
Channel positions                        : Front: L C R, Side: L R, LFE
Sampling rate                            : 48.0 KHz
Bit depth                                : 24 bits
Compression mode                         : Lossy
Stream size                              : 1.12 GiB (25%)
Title                                    : DTS-1 510 Kbps
Language                                 : English
Default                                  : No
Forced                                   : No

Text
ID                                       : 4
Format                                   : UTF-8
Codec ID                                 : S_TEXT/UTF8
Codec ID/Info                            : UTF-8 Plain Text
Title                                    : forced_ger.srt
Language                                 : German
Default                                  : Yes
Forced                                   : No


Download:
Share Online Share OnlineShare OnlineShare Online
 

Kommentare